<?xml version="1.0" standalone="no"?>
<!DOCTYPE svg PUBLIC "-//W3C//DTD SVG 1.1//EN" "http://www.w3.org/Graphics/SVG/1.1/DTD/svg11.dtd" >
<svg xmlns="http://www.w3.org/2000/svg">
<metadata>Generated by IcoMoon</metadata>
<defs>
<font id="icomoon" horiz-adv-x="1024">
<font-face units-per-em="1024" ascent="960" descent="-64" />
<missing-glyph horiz-adv-x="1024" />
<glyph unicode="&#x20;" horiz-adv-x="512" d="" />
<glyph unicode="&#xe900;" glyph-name="address-book-regular" horiz-adv-x="896" d="M872 640c13.2 0 24 10.8 24 24v80c0 13.2-10.8 24-24 24h-40v96c0 53-43 96-96 96h-640c-53 0-96-43-96-96v-832c0-53 43-96 96-96h640c53 0 96 43 96 96v96h40c13.2 0 24 10.8 24 24v80c0 13.2-10.8 24-24 24h-40v128h40c13.2 0 24 10.8 24 24v80c0 13.2-10.8 24-24 24h-40v128h40zM736 32h-640v832h640v-832zM416 448c70.6 0 128 57.4 128 128s-57.4 128-128 128-128-57.4-128-128 57.4-128 128-128zM236.8 192h358.4c24.8 0 44.8 17.2 44.8 38.4v38.4c0 63.6-60.2 115.2-134.4 115.2-21.6 0-37.4-16-89.6-16-53.8 0-66.8 16-89.6 16-74.2 0-134.4-51.6-134.4-115.2v-38.4c0-21.2 20-38.4 44.8-38.4z" />
<glyph unicode="&#xe901;" glyph-name="address-card-regular" horiz-adv-x="1152" d="M1056 896h-960c-53 0-96-43-96-96v-704c0-53 43-96 96-96h960c53 0 96 43 96 96v704c0 53-43 96-96 96zM1056 96h-960v704h960v-704zM416 448c70.6 0 128 57.4 128 128s-57.4 128-128 128-128-57.4-128-128 57.4-128 128-128zM236.8 192h358.4c24.8 0 44.8 17.2 44.8 38.4v38.4c0 63.6-60.2 115.2-134.4 115.2-21.6 0-37.4-16-89.6-16-53.8 0-66.8 16-89.6 16-74.2 0-134.4-51.6-134.4-115.2v-38.4c0-21.2 20-38.4 44.8-38.4zM720 320h224c8.8 0 16 7.2 16 16v32c0 8.8-7.2 16-16 16h-224c-8.8 0-16-7.2-16-16v-32c0-8.8 7.2-16 16-16zM720 448h224c8.8 0 16 7.2 16 16v32c0 8.8-7.2 16-16 16h-224c-8.8 0-16-7.2-16-16v-32c0-8.8 7.2-16 16-16zM720 576h224c8.8 0 16 7.2 16 16v32c0 8.8-7.2 16-16 16h-224c-8.8 0-16-7.2-16-16v-32c0-8.8 7.2-16 16-16z" />
<glyph unicode="&#xe902;" glyph-name="alarm-clock-regular" d="M512 832c-247.48 0-448-200.58-448-448 0-0.062 0-0.135 0-0.208 0-101.016 33.63-194.178 90.305-268.899l-0.805 1.107-80.2-80.18c-5.792-5.791-9.375-13.792-9.375-22.63s3.583-16.839 9.375-22.63l45.26-45.24c5.79-5.786 13.787-9.365 22.62-9.365s16.83 3.579 22.62 9.365v0l80.2 80.24c73.667-55.926 166.902-89.591 268-89.591s194.333 33.665 269.106 90.395l-1.106-0.805 80.2-80.18c5.791-5.792 13.792-9.375 22.63-9.375s16.839 3.583 22.63 9.375l45.24 45.24c5.792 5.791 9.375 13.792 9.375 22.63s-3.583 16.839-9.375 22.63v0l-80.28 80.12c55.919 73.637 89.58 166.84 89.58 267.905 0 0.033 0 0.066 0 0.099v-0.005c0 247.42-200.6 448-448 448zM512 32c-194.404 0-352 157.596-352 352s157.596 352 352 352c194.404 0 352-157.596 352-352v0c0-194.404-157.596-352-352-352v0zM192 960c-106.039 0-192-85.961-192-192v0c0.16-38.139 11.555-73.585 31.042-103.237l-0.442 0.717 291.8 243.16c-34.063 31.818-79.949 51.356-130.399 51.36h-0.001zM560 375.060v248.94c0 8.837-7.163 16-16 16v0h-64c-8.837 0-16-7.163-16-16v0-264.32c0-0.012 0-0.026 0-0.040 0-20.154 9.316-38.133 23.877-49.864l0.123-0.096 129.080-103.14c2.848-2.181 6.46-3.494 10.378-3.494 0.479 0 0.954 0.020 1.423 0.058l-0.062-0.004c4.349 0.503 8.11 2.684 10.676 5.869l0.024 0.031 40 50c2.199 2.718 3.531 6.216 3.531 10.026 0 5.052-2.342 9.558-5.999 12.49l-0.031 0.024zM832 960c-50.43-0.010-96.299-19.53-130.472-51.423l0.112 0.103 291.78-243.14c19.024 28.922 30.409 64.344 30.58 102.415v0.045c0 106.039-85.961 192-192 192v0z" />
<glyph unicode="&#xe903;" glyph-name="album-collection-regular" d="M992 752c0 26.51-21.49 48-48 48v0h-864c-26.51 0-48-21.49-48-48v0-48h960zM960 912c0 26.51-21.49 48-48 48v0h-800c-26.51 0-48-21.49-48-48v0-48h896zM960 640h-896c-0.001 0-0.002 0-0.003 0-35.346 0-64-28.654-64-64 0-2.042 0.096-4.062 0.283-6.055l-0.019 0.255 52.38-576c3.069-32.756 30.423-58.191 63.719-58.2h791.281c33.297 0.009 60.651 25.444 63.701 57.945l0.019 0.255 52.38 576c0.168 1.738 0.263 3.758 0.263 5.8 0 35.346-28.654 64-64 64-0.001 0-0.002 0-0.004 0v0zM878.4 32h-732.8l-46.56 512h826zM512 64c160.26 0 296.5 90.58 304.68 208 8.64 124-127.56 229.78-304.7 229.78s-313.32-105.88-304.66-229.78c8.2-117.42 144.42-208 304.68-208zM512 304.82c29.12 0 52.52-17.38 52.28-38.64s-23.64-38-52.28-38-52 16.94-52.26 38 23.16 38.64 52.26 38.64z" />
<glyph unicode="&#xe904;" glyph-name="album-regular" horiz-adv-x="896" d="M832 896h-768c-35.346 0-64-28.654-64-64v0-768c0-35.346 28.654-64 64-64v0h768c35.346 0 64 28.654 64 64v0 768c0 35.346-28.654 64-64 64v0zM800 96h-704v704h704zM448 160c159.058 0 288 128.942 288 288s-128.942 288-288 288c-159.058 0-288-128.942-288-288v0c0-159.058 128.942-288 288-288v0zM448 496c26.51 0 48-21.49 48-48s-21.49-48-48-48c-26.51 0-48 21.49-48 48v0c0 26.51 21.49 48 48 48v0z" />
<glyph unicode="&#xe905;" glyph-name="angle-down-regular" horiz-adv-x="640" d="M303 264.4l-296 293.6c-9.4 9.4-9.4 24.6 0 34l39.6 39.6c9.4 9.4 24.6 9.4 34 0l239.4-237 239.4 237c9.4 9.4 24.6 9.4 34 0l39.6-39.6c9.4-9.4 9.4-24.6 0-34l-296-293.6c-9.4-9.4-24.6-9.4-34 0z" />
<glyph unicode="&#xe906;" glyph-name="angle-left-regular" horiz-adv-x="384" d="M8.4 465l293.6 296c9.4 9.4 24.6 9.4 34 0l39.6-39.6c9.4-9.4 9.4-24.6 0-34l-237-239.4 237-239.4c9.4-9.4 9.4-24.6 0-34l-39.6-39.6c-9.4-9.4-24.6-9.4-34 0l-293.6 296c-9.4 9.4-9.4 24.6 0 34z" />
<glyph unicode="&#xe907;" glyph-name="angle-right-regular" horiz-adv-x="384" d="M375.6 431l-293.6-296c-9.4-9.4-24.6-9.4-34 0l-39.6 39.6c-9.4 9.4-9.4 24.6 0 34l237 239.4-237 239.4c-9.4 9.4-9.4 24.6 0 34l39.6 39.6c9.4 9.4 24.6 9.4 34 0l293.6-296c9.4-9.4 9.4-24.6 0-34z" />
<glyph unicode="&#xe908;" glyph-name="angle-up-regular" horiz-adv-x="640" d="M337 631.6l296-293.6c9.4-9.4 9.4-24.6 0-34l-39.6-39.6c-9.4-9.4-24.6-9.4-34 0l-239.4 237-239.4-237c-9.4-9.4-24.6-9.4-34 0l-39.6 39.6c-9.4 9.4-9.4 24.6 0 34l296 293.6c9.4 9.4 24.6 9.4 34 0z" />
<glyph unicode="&#xe909;" glyph-name="arrow-alt-circle-down-regular" d="M512 944c-274 0-496-222-496-496s222-496 496-496 496 222 496 496-222 496-496 496zM512 48c-221 0-400 179-400 400s179 400 400 400 400-179 400-400-179-400-400-400zM448 680v-232h-134c-21.4 0-32-25.8-17-41l198-198c9.4-9.4 24.6-9.4 34 0l198 198c15.2 15.2 4.4 41-17 41h-134v232c0 13.2-10.8 24-24 24h-80c-13.2 0-24-10.8-24-24z" />
<glyph unicode="&#xe90a;" glyph-name="arrow-alt-circle-left-regular" d="M16 448c0-274 222-496 496-496s496 222 496 496-222 496-496 496-496-222-496-496zM912 448c0-221-179-400-400-400s-400 179-400 400 179 400 400 400 400-179 400-400zM768 488v-80c0-13.2-10.8-24-24-24h-232v-134c0-21.4-25.8-32-41-17l-198 198c-9.4 9.4-9.4 24.6 0 34l198 198c15.2 15.2 41 4.4 41-17v-134h232c13.2 0 24-10.8 24-24z" />
<glyph unicode="&#xe90b;" glyph-name="arrow-alt-circle-right-regular" d="M1008 448c0 274-222 496-496 496s-496-222-496-496 222-496 496-496 496 222 496 496zM112 448c0 221 179 400 400 400s400-179 400-400-179-400-400-400-400 179-400 400zM256 408v80c0 13.2 10.8 24 24 24h232v134c0 21.4 25.8 32 41 17l198-198c9.4-9.4 9.4-24.6 0-34l-198-198c-15.2-15.2-41-4.4-41 17v134h-232c-13.2 0-24 10.8-24 24z" />
<glyph unicode="&#xe90c;" glyph-name="arrow-alt-circle-up-regular" d="M512-48c274 0 496 222 496 496s-222 496-496 496-496-222-496-496 222-496 496-496zM512 848c221 0 400-179 400-400s-179-400-400-400-400 179-400 400 179 400 400 400zM552 192h-80c-13.2 0-24 10.8-24 24v232h-134c-21.4 0-32 25.8-17 41l198 198c9.4 9.4 24.6 9.4 34 0l198-198c15.2-15.2 4.4-41-17-41h-134v-232c0-13.2-10.8-24-24-24z" />
<glyph unicode="&#xe90d;" glyph-name="arrow-circle-down-regular" d="M512 944c-274 0-496-222-496-496s222-496 496-496 496 222 496 496-222 496-496 496zM512 48c-221 0-400 179-400 400s179 400 400 400 400-179 400-400-179-400-400-400zM771.8 460.2l-39.2 39.2c-9.6 9.6-25 9.4-34.4-0.4l-134.2-140.6v321.6c0 13.2-10.8 24-24 24h-56c-13.2 0-24-10.8-24-24v-321.6l-134.2 140.6c-9.4 9.8-24.8 10-34.4 0.4l-39.2-39.2c-9.4-9.4-9.4-24.6 0-34l242.8-242.8c9.4-9.4 24.6-9.4 34 0l242.8 242.8c9.4 9.4 9.4 24.6 0 34z" />
<glyph unicode="&#xe90e;" glyph-name="arrow-circle-left-regular" d="M1008 448c0 274-222 496-496 496s-496-222-496-496 222-496 496-496 496 222 496 496zM112 448c0 221 179 400 400 400s400-179 400-400-179-400-400-400-400 179-400 400zM490.2 188.2l-242.8 242.8c-9.4 9.4-9.4 24.6 0 34l242.8 242.8c9.4 9.4 24.6 9.4 34 0l39.2-39.2c9.6-9.6 9.4-25-0.4-34.4l-140.6-134.2h321.6c13.2 0 24-10.8 24-24v-56c0-13.2-10.8-24-24-24h-321.6l140.6-134.2c9.8-9.4 10-24.8 0.4-34.4l-39.2-39.2c-9.4-9.4-24.6-9.4-34 0z" />
<glyph unicode="&#xe90f;" glyph-name="arrow-circle-right-regular" d="M16 448c0-274 222-496 496-496s496 222 496 496-222 496-496 496-496-222-496-496zM912 448c0-221-179-400-400-400s-400 179-400 400 179 400 400 400 400-179 400-400zM533.8 707.8l242.8-242.8c9.4-9.4 9.4-24.6 0-34l-242.8-242.8c-9.4-9.4-24.6-9.4-34 0l-39.2 39.2c-9.6 9.6-9.4 25 0.4 34.4l140.6 134.2h-321.6c-13.2 0-24 10.8-24 24v56c0 13.2 10.8 24 24 24h321.6l-140.6 134.2c-9.8 9.4-10 24.8-0.4 34.4l39.2 39.2c9.4 9.4 24.6 9.4 34 0z" />
<glyph unicode="&#xe910;" glyph-name="arrow-circle-up-regular" d="M512-48c274 0 496 222 496 496s-222 496-496 496-496-222-496-496 222-496 496-496zM512 848c221 0 400-179 400-400s-179-400-400-400-400 179-400 400 179 400 400 400zM252.2 469.8l242.8 242.8c9.4 9.4 24.6 9.4 34 0l242.8-242.8c9.4-9.4 9.4-24.6 0-34l-39.2-39.2c-9.6-9.6-25-9.4-34.4 0.4l-134.2 140.6v-321.6c0-13.2-10.8-24-24-24h-56c-13.2 0-24 10.8-24 24v321.6l-134.2-140.6c-9.4-9.8-24.8-10-34.4-0.4l-39.2 39.2c-9.4 9.4-9.4 24.6 0 34z" />
<glyph unicode="&#xe911;" glyph-name="arrow-down-regular" horiz-adv-x="896" d="M883.8 459.8l-39.6 39.6c-9.4 9.4-24.6 9.4-34 0l-310.2-310.2v682.8c0 13.2-10.8 24-24 24h-56c-13.2 0-24-10.8-24-24v-682.8l-310.2 310.2c-9.4 9.4-24.6 9.4-34 0l-39.6-39.6c-9.4-9.4-9.4-24.6 0-34l418.8-418.8c9.4-9.4 24.6-9.4 34 0l418.8 418.8c9.4 9.4 9.4 24.6 0 34z" />
<glyph unicode="&#xe912;" glyph-name="arrow-from-bottom-regular" horiz-adv-x="768" d="M71 592.2l296 296.8c9.4 9.4 24.6 9.4 34 0l296-296.8c9.4-9.4 9.4-24.6 0-34l-39.2-39.2c-9.6-9.6-25-9.4-34.2 0.4l-187.6 194.2v-497.6c0-13.2-10.8-24-24-24h-56c-13.2 0-24 10.8-24 24v497.6l-187.4-194.2c-9.4-9.6-24.8-9.8-34.2-0.4l-39.2 39.2c-9.6 9.4-9.6 24.6-0.2 34zM744 104h-720c-13.2 0-24-10.8-24-24v-56c0-13.2 10.8-24 24-24h720c13.2 0 24 10.8 24 24v56c0 13.2-10.8 24-24 24z" />
<glyph unicode="&#xe913;" glyph-name="arrow-from-left-regular" horiz-adv-x="896" d="M592.2 761l296.8-296c9.4-9.4 9.4-24.6 0-34l-296.8-296c-9.4-9.4-24.6-9.4-34 0l-39.2 39.2c-9.6 9.6-9.4 25 0.4 34.2l194.2 187.4h-497.6c-13.2 0-24 10.8-24 24v56c0 13.2 10.8 24 24 24h497.6l-194.2 187.4c-9.6 9.4-9.8 24.8-0.4 34.2l39.2 39.2c9.4 9.8 24.6 9.8 34 0.4zM104 88v720c0 13.2-10.8 24-24 24h-56c-13.2 0-24-10.8-24-24v-720c0-13.2 10.8-24 24-24h56c13.2 0 24 10.8 24 24z" />
<glyph unicode="&#xe914;" glyph-name="arrow-from-right-regular" horiz-adv-x="896" d="M303.8 135l-296.8 296c-9.4 9.4-9.4 24.6 0 34l296.8 296c9.4 9.4 24.6 9.4 34 0l39.2-39.2c9.6-9.6 9.4-25-0.4-34.2l-194.2-187.6h497.6c13.2 0 24-10.8 24-24v-56c0-13.2-10.8-24-24-24h-497.6l194.2-187.4c9.6-9.4 9.8-24.8 0.4-34.2l-39.2-39.2c-9.4-9.6-24.6-9.6-34-0.2zM792 808v-720c0-13.2 10.8-24 24-24h56c13.2 0 24 10.8 24 24v720c0 13.2-10.8 24-24 24h-56c-13.2 0-24-10.8-24-24z" />
<glyph unicode="&#xe915;" glyph-name="arrow-from-top-regular" horiz-adv-x="768" d="M697 303.8l-296-296.8c-9.4-9.4-24.6-9.4-34 0l-296 296.8c-9.4 9.4-9.4 24.6 0 34l39.2 39.2c9.6 9.6 25 9.4 34.2-0.4l187.4-194.2v497.6c0 13.2 10.8 24 24 24h56c13.2 0 24-10.8 24-24v-497.6l187.4 194.2c9.4 9.6 24.8 9.8 34.2 0.4l39.2-39.2c9.8-9.4 9.8-24.6 0.4-34zM24 792h720c13.2 0 24 10.8 24 24v56c0 13.2-10.8 24-24 24h-720c-13.2 0-24-10.8-24-24v-56c0-13.2 10.8-24 24-24z" />
<glyph unicode="&#xe916;" glyph-name="arrow-left-regular" horiz-adv-x="896" d="M459.8 12.202l39.598 39.598c9.372 9.372 9.372 24.568 0 33.942l-310.26 310.258h682.862c13.254 0 24 10.746 24 24v56c0 13.254-10.746 24-24 24h-682.862l310.26 310.26c9.372 9.372 9.372 24.568 0 33.942l-39.598 39.596c-9.372 9.372-24.568 9.372-33.942 0l-418.828-418.828c-9.372-9.372-9.372-24.568 0-33.942l418.828-418.828c9.372-9.372 24.568-9.372 33.942 0.002z" />
<glyph unicode="&#xe917;" glyph-name="arrow-right-regular" horiz-adv-x="896" d="M436.202 883.798l-39.598-39.598c-9.372-9.372-9.372-24.568 0-33.942l310.26-310.258h-682.864c-13.254 0-24-10.746-24-24v-56c0-13.254 10.746-24 24-24h682.864l-310.26-310.26c-9.372-9.372-9.372-24.568 0-33.942l39.598-39.598c9.372-9.372 24.568-9.372 33.942 0l418.828 418.828c9.372 9.372 9.372 24.568 0 33.942l-418.83 418.828c-9.372 9.374-24.568 9.374-33.94 0z" />
<glyph unicode="&#xe918;" glyph-name="arrow-to-bottom-regular" horiz-adv-x="768" d="M697 495.8l-296-296.8c-9.4-9.4-24.6-9.4-34 0l-296 296.8c-9.4 9.4-9.4 24.6 0 34l39.2 39.2c9.6 9.6 25 9.4 34.2-0.4l187.4-194.2v497.6c0 13.2 10.8 24 24 24h56c13.2 0 24-10.8 24-24v-497.6l187.4 194.2c9.4 9.6 24.8 9.8 34.2 0.4l39.2-39.2c9.8-9.4 9.8-24.6 0.4-34zM744 104h-720c-13.2 0-24-10.8-24-24v-56c0-13.2 10.8-24 24-24h720c13.2 0 24 10.8 24 24v56c0 13.2-10.8 24-24 24z" />
<glyph unicode="&#xe919;" glyph-name="arrow-to-left-regular" horiz-adv-x="896" d="M495.8 135l-296.8 296c-9.4 9.4-9.4 24.6 0 34l296.8 296c9.4 9.4 24.6 9.4 34 0l39.2-39.2c9.6-9.6 9.4-25-0.4-34.2l-194.2-187.6h497.6c13.2 0 24-10.8 24-24v-56c0-13.2-10.8-24-24-24h-497.6l194.2-187.4c9.6-9.4 9.8-24.8 0.4-34.2l-39.2-39.2c-9.4-9.6-24.6-9.6-34-0.2zM104 88v720c0 13.2-10.8 24-24 24h-56c-13.2 0-24-10.8-24-24v-720c0-13.2 10.8-24 24-24h56c13.2 0 24 10.8 24 24z" />
<glyph unicode="&#xe91a;" glyph-name="arrow-to-right-regular" horiz-adv-x="896" d="M400.2 761l296.8-296c9.4-9.4 9.4-24.6 0-34l-296.8-296c-9.4-9.4-24.6-9.4-34 0l-39.2 39.2c-9.6 9.6-9.4 25 0.4 34.2l194.2 187.4h-497.6c-13.2 0-24 10.8-24 24v56c0 13.2 10.8 24 24 24h497.6l-194.2 187.4c-9.6 9.4-9.8 24.8-0.4 34.2l39.2 39.2c9.4 9.8 24.6 9.8 34 0.4zM792 808v-720c0-13.2 10.8-24 24-24h56c13.2 0 24 10.8 24 24v720c0 13.2-10.8 24-24 24h-56c-13.2 0-24-10.8-24-24z" />
<glyph unicode="&#xe91b;" glyph-name="arrow-to-top-regular" horiz-adv-x="768" d="M71 400.2l296 296.8c9.4 9.4 24.6 9.4 34 0l296-296.8c9.4-9.4 9.4-24.6 0-34l-39.2-39.2c-9.6-9.6-25-9.4-34.2 0.4l-187.6 194.2v-497.6c0-13.2-10.8-24-24-24h-56c-13.2 0-24 10.8-24 24v497.6l-187.4-194.2c-9.4-9.6-24.8-9.8-34.2-0.4l-39.2 39.2c-9.6 9.4-9.6 24.6-0.2 34zM24 792h720c13.2 0 24 10.8 24 24v56c0 13.2-10.8 24-24 24h-720c-13.2 0-24-10.8-24-24v-56c0-13.2 10.8-24 24-24z" />
<glyph unicode="&#xe91c;" glyph-name="backspace-regular" horiz-adv-x="1280" d="M939.3 596.7l-22.62 22.62c-12.5 12.5-32.76 12.5-45.26 0l-103.42-103.44-103.44 103.44c-12.5 12.5-32.76 12.5-45.26 0l-22.62-22.62c-12.5-12.5-12.5-32.76 0-45.26l103.44-103.44-103.44-103.44c-12.5-12.5-12.5-32.76 0-45.26l22.62-22.62c12.5-12.5 32.76-12.5 45.26 0l103.44 103.44 103.44-103.44c12.5-12.5 32.76-12.5 45.26 0l22.62 22.62c12.5 12.5 12.5 32.76 0 45.26l-103.44 103.44 103.44 103.44c12.48 12.5 12.48 32.76-0.020 45.26zM1152 832h-741.48c-33.96 0-66.52-13.48-90.52-37.48l-301.26-301.26c-25-25-25-65.52 0-90.5l301.26-301.26c24-24 56.56-37.5 90.5-37.5h741.5c70.7 0 128 57.3 128 128v512c0 70.7-57.3 128-128 128zM1184 192c0-17.64-14.36-32-32-32h-741.48c-8.54 0-16.58 3.32-22.62 9.38l-278.64 278.62 278.62 278.62c6.040 6.040 14.080 9.38 22.62 9.38h741.5c17.64 0 32-14.36 32-32v-512z" />
<glyph unicode="&#xe91d;" glyph-name="ban-regular" d="M512 944c-273.934 0-496-222.066-496-496s222.066-496 496-496 496 222.066 496 496-222.066 496-496 496zM794.842 730.842c146.352-146.35 154.1-374.602 31.928-529.73l-561.658 561.658c155.176 122.21 383.418 114.386 529.73-31.928zM229.158 165.158c-146.352 146.35-154.1 374.602-31.928 529.73l561.658-561.658c-155.176-122.21-383.418-114.386-529.73 31.928z" />
<glyph unicode="&#xe91e;" glyph-name="barcode-alt-regular" horiz-adv-x="1280" d="M720 192h96c8.8 0 16 7.2 16 16v480c0 8.8-7.2 16-16 16h-96c-8.8 0-16-7.2-16-16v-480c0-8.8 7.2-16 16-16zM912 192h96c8.8 0 16 7.2 16 16v480c0 8.8-7.2 16-16 16h-96c-8.8 0-16-7.2-16-16v-480c0-8.8 7.2-16 16-16zM592 192h32c8.8 0 16 7.2 16 16v480c0 8.8-7.2 16-16 16h-32c-8.8 0-16-7.2-16-16v-480c0-8.8 7.2-16 16-16zM1184 960h-1088c-53 0-96-43-96-96v-832c0-53 43-96 96-96h1088c53 0 96 43 96 96v832c0 53-43 96-96 96zM1184 32h-1088v832h1088v-832zM272 192h96c8.8 0 16 7.2 16 16v480c0 8.8-7.2 16-16 16h-96c-8.8 0-16-7.2-16-16v-480c0-8.8 7.2-16 16-16zM464 192h32c8.8 0 16 7.2 16 16v480c0 8.8-7.2 16-16 16h-32c-8.8 0-16-7.2-16-16v-480c0-8.8 7.2-16 16-16z" />
<glyph unicode="&#xe91f;" glyph-name="barcode-read-regular" horiz-adv-x="1280" d="M496 704h-32c-8.8 0-16-7.2-16-16v-480c0-8.8 7.2-16 16-16h32c8.8 0 16 7.2 16 16v480c0 8.8-7.2 16-16 16zM368 704h-96c-8.8 0-16-7.2-16-16v-480c0-8.8 7.2-16 16-16h96c8.8 0 16 7.2 16 16v480c0 8.8-7.2 16-16 16zM288 32h-192v192c0 17.6-14.4 32-32 32h-32c-17.6 0-32-14.4-32-32v-256c0-17.6 14.4-32 32-32h256c17.6 0 32 14.4 32 32v32c0 17.6-14.4 32-32 32zM32 640h32c17.6 0 32 14.4 32 32v192h192c17.6 0 32 14.4 32 32v32c0 17.6-14.4 32-32 32h-256c-17.6 0-32-14.4-32-32v-256c0-17.6 14.4-32 32-32zM1024 208v480c0 8.8-7.2 16-16 16h-96c-8.8 0-16-7.2-16-16v-480c0-8.8 7.2-16 16-16h96c8.8 0 16 7.2 16 16zM624 704h-32c-8.8 0-16-7.2-16-16v-480c0-8.8 7.2-16 16-16h32c8.8 0 16 7.2 16 16v480c0 8.8-7.2 16-16 16zM1248 256h-32c-17.6 0-32-14.4-32-32v-192h-192c-17.6 0-32-14.4-32-32v-32c0-17.6 14.4-32 32-32h256c17.6 0 32 14.4 32 32v256c0 17.6-14.4 32-32 32zM1248 960h-256c-17.6 0-32-14.4-32-32v-32c0-17.6 14.4-32 32-32h192v-192c0-17.6 14.4-32 32-32h32c17.6 0 32 14.4 32 32v256c0 17.6-14.4 32-32 32zM816 704h-96c-8.8 0-16-7.2-16-16v-480c0-8.8 7.2-16 16-16h96c8.8 0 16 7.2 16 16v480c0 8.8-7.2 16-16 16z" />
<glyph unicode="&#xe920;" glyph-name="bars-regular" horiz-adv-x="896" d="M872 712h-848c-13.254 0-24 10.746-24 24v64c0 13.254 10.746 24 24 24h848c13.254 0 24-10.746 24-24v-64c0-13.254-10.746-24-24-24zM872 392h-848c-13.254 0-24 10.746-24 24v64c0 13.254 10.746 24 24 24h848c13.254 0 24-10.746 24-24v-64c0-13.254-10.746-24-24-24zM872 72h-848c-13.254 0-24 10.746-24 24v64c0 13.254 10.746 24 24 24h848c13.254 0 24-10.746 24-24v-64c0-13.254-10.746-24-24-24z" />
<glyph unicode="&#xe921;" glyph-name="bell-regular" horiz-adv-x="896" d="M878.78 235.42c-38.64 41.52-110.94 103.98-110.94 308.58 0 155.4-108.96 279.8-255.88 310.32v41.68c0 35.34-28.64 64-63.96 64s-63.96-28.66-63.96-64v-41.68c-146.92-30.52-255.88-154.92-255.88-310.32 0-204.6-72.3-267.060-110.94-308.58-12-12.9-17.32-28.32-17.22-43.42 0.22-32.8 25.96-64 64.2-64h767.6c38.24 0 64 31.2 64.2 64 0.1 15.1-5.22 30.54-17.22 43.42zM135.060 224c42.44 55.94 88.84 148.66 89.060 318.84 0 0.4-0.12 0.76-0.12 1.16 0 123.72 100.28 224 224 224s224-100.28 224-224c0-0.4-0.12-0.76-0.12-1.16 0.22-170.2 46.62-262.92 89.060-318.84h-625.88zM448-64c70.64 0 127.94 57.3 127.94 128h-255.88c0-70.7 57.3-128 127.94-128z" />
<glyph unicode="&#xe922;" glyph-name="book-alt-regular" horiz-adv-x="896" d="M870.2 160.6c-8.4-26-8.4-103.2 0-129.2 14.6-2.8 25.8-15.8 25.8-31.4v-32c0-17.6-14.4-32-32-32h-704c-88.4 0-160 71.6-160 160v704c0 88.4 71.6 160 160 160h704c17.6 0 32-14.4 32-32v-736c0-15.6-11-28.4-25.8-31.4zM788 160h-628c-35.2 0-64-28.8-64-64 0-35.4 28.6-64 64-64h628c-5.4 34.6-5.4 93.4 0 128zM800 864h-640c-35.4 0-64-28.6-64-64v-557.4c19.6 8.6 41.2 13.4 64 13.4h640v608z" />
<glyph unicode="&#xe923;" glyph-name="book-open-regular" horiz-adv-x="1280" d="M1123.82 960c-24.94 0-310.8-12.98-483.82-113.78-173.020 100.8-458.88 113.78-483.82 113.78-86.12 0-156.18-68.68-156.18-153.1v-627.44c0-81.46 64.94-148.6 147.84-152.82 73.56-3.82 257.62-19 375.46-77.38 16.38-8.1 34.5-12.58 52.68-13.16v-0.1l128.040 0.1c18.18 0.58 36.3 5.060 52.68 13.16 117.84 58.38 301.9 73.56 375.46 77.38 82.9 4.22 147.84 71.36 147.84 152.82v627.44c0 84.42-70.060 153.1-156.18 153.1zM592 83.7c0-22.18-21.92-37.82-42.66-29.92-129.060 49.080-307.92 64.14-396.62 68.76-31.8 1.6-56.72 26.6-56.72 56.92v627.44c0 31.48 27 57.1 60.12 57.1 39.86-0.2 253.1-15.62 397.060-80.98 23.26-10.56 38.54-33.32 38.56-58.88l0.26-212.14v-428.3zM1184 179.46c0-30.32-24.92-55.32-56.72-56.94-88.7-4.6-267.56-19.66-396.62-68.76-20.74-7.88-42.66 7.74-42.66 29.92v428.32l0.28 212.16c0.040 25.56 15.3 48.3 38.56 58.88 143.96 65.34 357.2 80.76 397.040 80.96 33.12 0 60.12-25.62 60.12-57.1v-627.44z" />
<glyph unicode="&#xe924;" glyph-name="bookmark-regular" horiz-adv-x="768" d="M672 960h-576c-53.020 0-96-42.98-96-96v-928l384 224 384-224v928c0 53.020-42.98 96-96 96zM672 103.14l-288 168-288-168v748.86c0 6.627 5.373 12 12 12v0h552c6.628 0 12-5.366 12-11.992v-748.868z" />
<glyph unicode="&#xe925;" glyph-name="box-open-regular" horiz-adv-x="1280" d="M1276.6 672.4l-103 205.6c-8 16-24.2 19-33.4 17.8l-500.2-63.8-500.4 63.8c-9.2 1.2-25.2-1.8-33.2-17.8l-103-205.6c-9.2-18.4 0.6-40.4 20.2-46l104.4-29.8v-422.6c0-29.4 20-55 48.4-62l432.4-108.2c12-3 34.8-6.8 62 0l432.8 108.2c28.4 7.2 48.4 32.8 48.4 62v422.6l104.2 29.8c19.8 5.6 29.4 27.6 20.4 46zM172 794.8l309.6-39.4-82.4-136.6-276 78.8 48.8 97.2zM224 569.2l195.6-55.8c16-4.6 30.4 3.6 37 14.6l135.4 224.4v-645.4l-368 92v370.2zM1056 199l-368-92v645.4l135.4-224.6c6.6-11 21.2-19.2 37-14.6l195.6 55.8v-370zM880.6 618.8l-82.4 136.6 309.8 39.4 48.6-97.2-276-78.8z" />
<glyph unicode="&#xe926;" glyph-name="box-regular" d="M1019 590.8l-101.2 303.6c-13 39.2-49.6 65.6-91 65.6h-629.6c-41.4 0-78-26.4-91-65.6l-101.2-303.6c-3.2-9.8-5-20-5-30.4v-528.4c0-53 43-96 96-96h832c53 0 96 43 96 96v528.4c0 10.4-1.6 20.6-5 30.4zM922.8 576h-362.8v288h266.8l96-288zM197.2 864h266.8v-288h-362.8l96 288zM96 32v448h832v-448h-832z" />
<glyph unicode="&#xe927;" glyph-name="briefcase-regular" d="M928 704h-160v96c0 53.020-42.98 96-96 96h-320c-53.020 0-96-42.98-96-96v-96h-160c-53.020 0-96-42.98-96-96v-512c0-53.020 42.98-96 96-96h832c53.020 0 96 42.98 96 96v512c0 53.020-42.98 96-96 96zM352 800h320v-96h-320v96zM108 608h808c6.62 0 12-5.38 12-12v-148h-832v148c0 6.62 5.38 12 12 12zM916 96h-808c-6.62 0-12 5.38-12 12v244h288v-48c0-26.5 21.5-48 48-48h160c26.5 0 48 21.5 48 48v48h288v-244c0-6.62-5.38-12-12-12z" />
<glyph unicode="&#xe928;" glyph-name="building-regular" horiz-adv-x="896" d="M256 664v80c0 13.2 10.8 24 24 24h80c13.2 0 24-10.8 24-24v-80c0-13.2-10.8-24-24-24h-80c-13.2 0-24 10.8-24 24zM536 640h80c13.2 0 24 10.8 24 24v80c0 13.2-10.8 24-24 24h-80c-13.2 0-24-10.8-24-24v-80c0-13.2 10.8-24 24-24zM280 448h80c13.2 0 24 10.8 24 24v80c0 13.2-10.8 24-24 24h-80c-13.2 0-24-10.8-24-24v-80c0-13.2 10.8-24 24-24zM536 448h80c13.2 0 24 10.8 24 24v80c0 13.2-10.8 24-24 24h-80c-13.2 0-24-10.8-24-24v-80c0-13.2 10.8-24 24-24zM384 280v80c0 13.2-10.8 24-24 24h-80c-13.2 0-24-10.8-24-24v-80c0-13.2 10.8-24 24-24h80c13.2 0 24 10.8 24 24zM536 256h80c13.2 0 24 10.8 24 24v80c0 13.2-10.8 24-24 24h-80c-13.2 0-24-10.8-24-24v-80c0-13.2 10.8-24 24-24zM896 8v-72h-896v72c0 13.2 10.8 24 24 24h39v880c0 26.6 21.4 48 48 48h674c26.6 0 48-21.4 48-48v-880h39c13.2 0 24-10.8 24-24zM159 34h225v134c0 13.2 10.8 24 24 24h80c13.2 0 24-10.8 24-24v-134h225v828l-577 2-1-830z" />
<glyph unicode="&#xe929;" glyph-name="bullhorn-regular" horiz-adv-x="1152" d="M1088 590.24v305.74c0 17.5-13.96 64.020-63.98 64.020h-0.020c-14.24 0-28.38-4.76-39.96-14.040l-170.060-136.060c-85.42-68.28-192.66-105.9-301.98-105.9h-384c-70.7 0-128-57.3-128-128v-192c0-70.7 57.3-128 128-128l-0.96-64c0-79.54 18.52-154.7 51.12-221.88 10.38-21.38 33.040-34.12 56.8-34.12h212.56c52.1 0 83.38 59.68 51.8 101.12-32.8 43.040-52.3 96.72-52.3 154.88 0 22.22 3.24 43.58 8.82 64h56.16c109.32 0 216.56-37.62 301.96-105.9l170.060-136.060c10.844-8.735 24.783-14.026 39.957-14.040h0.003c49.84 0 64 45.56 64 64v305.74c38.1 22.18 64 62.98 64 110.24 0.020 47.28-25.88 88.080-63.98 110.26zM255.46 32c-21.52 50.9-32.42 104.62-32.42 160 0 28.44 3.44 50.68 5.2 64h129.82c-4.18-21.4-7.040-42.82-7.040-64 0-56.44 13.16-110.8 38.42-160h-133.98zM480 352h-352c-17.64 0-32 14.36-32 32v192c0 17.64 14.36 32 32 32h352v-256zM992 130.6l-118.080 94.48c-85.6 68.44-189.58 110.74-297.92 122.9v264.040c108.34 12.16 212.32 54.46 297.94 122.92l118.060 94.46v-698.8z" />
<glyph unicode="&#xe92a;" glyph-name="bullseye-regular" horiz-adv-x="992" d="M496 752c-168.040 0-304-136-304-304 0-168.040 136-304 304-304 168.040 0 304 136 304 304 0 168.040-136 304-304 304zM496 240c-114.7 0-208 93.3-208 208s93.3 208 208 208 208-93.3 208-208-93.3-208-208-208zM496 944c-273.94 0-496-222.060-496-496s222.060-496 496-496 496 222.060 496 496-222.060 496-496 496zM496 48c-220.56 0-400 179.44-400 400s179.44 400 400 400 400-179.44 400-400-179.44-400-400-400zM496 560c-61.76 0-112-50.24-112-112s50.24-112 112-112 112 50.24 112 112-50.24 112-112 112z" />
<glyph unicode="&#xe92b;" glyph-name="calendar-day-regular" horiz-adv-x="896" d="M224 224h192c17.6 0 32 14.4 32 32v192c0 17.6-14.4 32-32 32h-192c-17.6 0-32-14.4-32-32v-192c0-17.6 14.4-32 32-32zM800 832h-96v96c0 17.6-14.4 32-32 32h-64c-17.6 0-32-14.4-32-32v-96h-256v96c0 17.6-14.4 32-32 32h-64c-17.6 0-32-14.4-32-32v-96h-96c-53 0-96-43-96-96v-704c0-53 43-96 96-96h704c53 0 96 43 96 96v704c0 53-43 96-96 96zM800 44c0-6.6-5.4-12-12-12h-680c-6.6 0-12 5.4-12 12v596h704v-596z" />
<glyph unicode="&#xe92c;" glyph-name="calendar-regular" horiz-adv-x="896" d="M800 832h-96v104c0 13.2-10.8 24-24 24h-80c-13.2 0-24-10.8-24-24v-104h-256v104c0 13.2-10.8 24-24 24h-80c-13.2 0-24-10.8-24-24v-104h-96c-53 0-96-43-96-96v-704c0-53 43-96 96-96h704c53 0 96 43 96 96v704c0 53-43 96-96 96zM788 32h-680c-6.6 0-12 5.4-12 12v596h704v-596c0-6.6-5.4-12-12-12z" />
<glyph unicode="&#xe92d;" glyph-name="camera-regular" d="M685.4 672h242.6v-576h-832v576h242.6l48 128h251l47.8-128zM648.6 896h-262c-40 0-75.8-24.8-89.8-62.2l-24.8-65.8h-176c-53 0-96-43-96-96v-576c0-53 43-96 96-96h832c53 0 96 43 96 96v576c0 53-43 96-96 96h-176l-28.6 76c-11.6 31.4-41.4 52-74.8 52zM512 144c-132.4 0-240 107.6-240 240s107.6 240 240 240 240-107.6 240-240-107.6-240-240-240zM512 528c-79.4 0-144-64.6-144-144s64.6-144 144-144 144 64.6 144 144-64.6 144-144 144z" />
<glyph unicode="&#xe92e;" glyph-name="caret-circle-down-regular" d="M314.2 528h395.6c21.4 0 32.2-26 17-41l-197.8-196.6c-9.4-9.4-24.4-9.4-33.8 0l-197.8 196.6c-15.4 15-4.6 41 16.8 41zM1008 448c0-274-222-496-496-496s-496 222-496 496 222 496 496 496 496-222 496-496zM912 448c0 221-179 400-400 400s-400-179-400-400 179-400 400-400 400 179 400 400z" />
<glyph unicode="&#xe92f;" glyph-name="caret-circle-left-regular" d="M592 645.8v-395.6c0-21.4-26-32.2-41-17l-196.6 197.8c-9.4 9.4-9.4 24.4 0 33.8l196.6 197.8c15 15.4 41 4.6 41-16.8zM512-48c-274 0-496 222-496 496s222 496 496 496 496-222 496-496-222-496-496-496zM512 48c221 0 400 179 400 400s-179 400-400 400-400-179-400-400 179-400 400-400z" />
<glyph unicode="&#xe930;" glyph-name="caret-circle-right-regular" d="M432 250.2v395.6c0 21.4 26 32.2 41 17l196.6-197.8c9.4-9.4 9.4-24.4 0-33.8l-196.6-197.8c-15-15.4-41-4.6-41 16.8zM512 944c274 0 496-222 496-496s-222-496-496-496-496 222-496 496 222 496 496 496zM512 848c-221 0-400-179-400-400s179-400 400-400 400 179 400 400-179 400-400 400z" />
<glyph unicode="&#xe931;" glyph-name="caret-circle-up-regular" d="M709.8 368h-395.6c-21.4 0-32.2 26-17 41l197.8 196.6c9.4 9.4 24.4 9.4 33.8 0l197.8-196.6c15.4-15 4.6-41-16.8-41zM16 448c0 274 222 496 496 496s496-222 496-496-222-496-496-496-496 222-496 496zM112 448c0-221 179-400 400-400s400 179 400 400-179 400-400 400-400-179-400-400z" />
<glyph unicode="&#xe932;" glyph-name="cart-plus-regular" horiz-adv-x="1152" d="M1103.982 832h-815.422l-17.452 89.216c-4.408 22.528-24.152 38.784-47.108 38.784h-200c-13.254 0-24-10.746-24-24v-48c0-13.254 10.746-24 24-24h160.48l139.188-711.402c-22.076-23-35.668-54.202-35.668-88.598 0-70.692 57.308-128 128-128s128 57.308 128 128c0 0.042 0 0.092 0 0.141 0 23.519-6.375 45.549-17.491 64.456l0.325-0.597h290.334c-10.791-18.31-17.166-40.34-17.166-63.859 0-0.050 0-0.099 0-0.149v0.008c0-70.692 57.308-128 128-128s128 57.308 128 128c0 36.272-15.112 68.992-39.352 92.284l2.070 9.514c6.508 29.92-16.284 58.202-46.904 58.202h-564.296l-18.78 96h624.81c22.58 0 42.108 15.738 46.904 37.804l90.432 416c6.504 29.918-16.288 58.196-46.904 58.196zM928 112c26.468 0 48-21.532 48-48s-21.532-48-48-48-48 21.532-48 48 21.532 48 48 48zM416 112c26.468 0 48-21.532 48-48s-21.532-48-48-48-48 21.532-48 48 21.532 48 48 48zM974.876 416h-604.916l-62.62 320h737.096l-69.56-320zM544 560v32c0 13.254 10.746 24 24 24h64v64c0 13.254 10.746 24 24 24h32c13.254 0 24-10.746 24-24v-64h64c13.254 0 24-10.746 24-24v-32c0-13.254-10.746-24-24-24h-64v-64c0-13.254-10.746-24-24-24h-32c-13.254 0-24 10.746-24 24v64h-64c-13.254 0-24 10.746-24 24z" />
<glyph unicode="&#xe933;" glyph-name="chart-bar-regular" d="M793.6 256h44.8c12.8 0 25.6 12.8 25.6 25.6v460.8c0 12.8-12.8 25.6-25.6 25.6h-44.8c-12.8 0-25.6-12.8-25.6-25.6v-460.8c0-12.8 12.8-25.6 25.6-25.6zM409.6 256h44.8c12.8 0 25.6 12.8 25.6 25.6v396.8c0 12.8-12.8 25.6-25.6 25.6h-44.8c-12.8 0-25.6-12.8-25.6-25.6v-396.8c0-12.8 12.8-25.6 25.6-25.6zM601.6 256h44.8c12.8 0 25.6 12.8 25.6 25.6v268.8c0 12.8-12.8 25.6-25.6 25.6h-44.8c-12.8 0-25.6-12.8-25.6-25.6v-268.8c0-12.8 12.8-25.6 25.6-25.6zM992 160h-896v640c0 17.68-14.32 32-32 32h-32c-17.68 0-32-14.32-32-32v-672c0-35.34 28.66-64 64-64h928c17.68 0 32 14.32 32 32v32c0 17.68-14.32 32-32 32zM217.6 256h44.8c12.8 0 25.6 12.8 25.6 25.6v140.8c0 12.8-12.8 25.6-25.6 25.6h-44.8c-12.8 0-25.6-12.8-25.6-25.6v-140.8c0-12.8 12.8-25.6 25.6-25.6z" />
<glyph unicode="&#xe934;" glyph-name="chart-pie-regular" horiz-adv-x="1088" d="M1023.92 513.6c-16.48 238.92-207.4 429.84-446.32 446.32-0.7 0.060-1.4 0.080-2.080 0.080-17.3 0-31.52-14.88-31.52-32.46v-447.54h447.54c18.28 0 33.64 15.36 32.38 33.6zM640 576v276.98c135.12-34.88 242.1-141.86 276.98-276.98h-276.98zM448 384v474.56c0 17.66-14.36 32.42-31.48 32.42-1.4 0-2.8-0.1-4.22-0.3-238.32-33.66-420.5-241.88-412.020-491.42 8.66-254.32 226.080-463.26 479.96-463.26 1.96 0 3.86 0.020 5.82 0.040 100.8 1.26 193.94 33.74 270.52 88.060 15.8 11.2 16.84 34.46 3.14 48.16l-311.72 311.74zM484.88 32.020l-4.62-0.020c-201.32 0-377.18 169.68-384.020 370.52-5.82 170.8 100.3 320.74 255.76 375.2v-433.48l280.56-280.56c-46.32-20.2-96.32-31-147.68-31.66zM1055.58 384h-474.58l316.060-316.060c6.34-6.34 14.82-9.62 23.24-9.62 7.64 0 15.24 2.7 21.14 8.26 77.4 72.92 130.64 171.22 146.26 281.72 2.68 18.92-13.020 35.7-32.12 35.7z" />
<glyph unicode="&#xe935;" glyph-name="check-circle-regular" d="M512 944c-273.934 0-496-222.066-496-496s222.066-496 496-496 496 222.066 496 496-222.066 496-496 496zM512 848c221.064 0 400-178.902 400-400 0-221.064-178.902-400-400-400-221.064 0-400 178.902-400 400 0 221.064 178.902 400 400 400zM792.408 587.466l-45.072 45.436c-9.334 9.41-24.53 9.472-33.94 0.136l-282.704-280.432-119.584 120.554c-9.334 9.41-24.53 9.472-33.94 0.138l-45.438-45.072c-9.41-9.334-9.472-24.53-0.136-33.942l181.562-183.032c9.334-9.41 24.53-9.472 33.94-0.136l345.178 342.408c9.408 9.336 9.468 24.532 0.134 33.942z" />
<glyph unicode="&#xe936;" glyph-name="check-regular" d="M871.696 793.068l-526.088-526.088-193.304 193.304c-9.372 9.372-24.568 9.372-33.942 0l-56.568-56.568c-9.372-9.372-9.372-24.568 0-33.942l266.842-266.842c9.372-9.372 24.568-9.372 33.942 0l599.626 599.626c9.372 9.372 9.372 24.568 0 33.942l-56.568 56.568c-9.372 9.372-24.568 9.372-33.94 0z" />
<glyph unicode="&#xe937;" glyph-name="check-square-regular" horiz-adv-x="896" d="M800 896h-704c-53.020 0-96-42.98-96-96v-704c0-53.020 42.98-96 96-96h704c53.020 0 96 42.98 96 96v704c0 53.020-42.98 96-96 96zM800 96h-704v704h704v-704zM728.272 579.448l-345.178-342.408c-9.41-9.334-24.606-9.274-33.94 0.136l-181.562 183.032c-9.334 9.41-9.274 24.606 0.138 33.942l45.438 45.072c9.41 9.334 24.606 9.274 33.94-0.138l119.584-120.554 282.704 280.432c9.41 9.334 24.606 9.274 33.94-0.136l45.072-45.436c9.334-9.412 9.274-24.608-0.136-33.942z" />
<glyph unicode="&#xe938;" glyph-name="chevron-circle-down-regular" d="M512 944c-274 0-496-222-496-496s222-496 496-496 496 222 496 496-222 496-496 496zM512 48c-221 0-400 179-400 400s179 400 400 400 400-179 400-400-179-400-400-400zM529 263l245.6 245.6c9.4 9.4 9.4 24.6 0 34l-45.2 45.2c-9.4 9.4-24.6 9.4-34 0l-183.4-183.4-183.4 183.4c-9.4 9.4-24.6 9.4-34 0l-45.2-45.2c-9.4-9.4-9.4-24.6 0-34l245.6-245.6c9.4-9.4 24.6-9.4 34 0z" />
<glyph unicode="&#xe939;" glyph-name="chevron-circle-left-regular" d="M1008 448c0 274-222 496-496 496s-496-222-496-496 222-496 496-496 496 222 496 496zM112 448c0 221 179 400 400 400s400-179 400-400-179-400-400-400-400 179-400 400zM327 465l245.6 245.6c9.4 9.4 24.6 9.4 34 0l45.2-45.2c9.4-9.4 9.4-24.6 0-34l-183.4-183.4 183.4-183.4c9.4-9.4 9.4-24.6 0-34l-45.2-45.2c-9.4-9.4-24.6-9.4-34 0l-245.6 245.6c-9.4 9.4-9.4 24.6 0 34z" />
<glyph unicode="&#xe93a;" glyph-name="chevron-circle-right-regular" d="M16 448c0-274 222-496 496-496s496 222 496 496-222 496-496 496-496-222-496-496zM912 448c0-221-179-400-400-400s-400 179-400 400 179 400 400 400 400-179 400-400zM697 431l-245.6-245.6c-9.4-9.4-24.6-9.4-34 0l-45.2 45.2c-9.4 9.4-9.4 24.6 0 34l183.4 183.4-183.4 183.4c-9.4 9.4-9.4 24.6 0 34l45.2 45.2c9.4 9.4 24.6 9.4 34 0l245.6-245.6c9.4-9.4 9.4-24.6 0-34z" />
<glyph unicode="&#xe93b;" glyph-name="chevron-circle-up-regular" d="M529 633l245.6-245.6c9.4-9.4 9.4-24.6 0-34l-45.2-45.2c-9.4-9.4-24.6-9.4-34 0l-183.4 183.4-183.4-183.4c-9.4-9.4-24.6-9.4-34 0l-45.2 45.2c-9.4 9.4-9.4 24.6 0 34l245.6 245.6c9.4 9.4 24.6 9.4 34 0zM1008 448c0-274-222-496-496-496s-496 222-496 496 222 496 496 496 496-222 496-496zM912 448c0 221-179 400-400 400s-400-179-400-400 179-400 400-400 400 179 400 400z" />
<glyph unicode="&#xe93c;" glyph-name="chevron-down-regular" horiz-adv-x="896" d="M883.8 625.4l-39.6 39.6c-9.4 9.4-24.6 9.4-34 0l-362.2-361.4-362.2 361.4c-9.4 9.4-24.6 9.4-34 0l-39.6-39.6c-9.4-9.4-9.4-24.6 0-34l418.8-418.8c9.4-9.4 24.6-9.4 34 0l418.8 418.8c9.4 9.4 9.4 24.6 0 34z" />
<glyph unicode="&#xe93d;" glyph-name="chevron-left-regular" horiz-adv-x="512" d="M462.586 12.202l39.598 39.598c9.372 9.372 9.372 24.568 0 33.942l-361.398 362.258 361.398 362.26c9.372 9.372 9.372 24.568 0 33.942l-39.598 39.598c-9.372 9.372-24.568 9.372-33.942 0l-418.828-418.83c-9.372-9.372-9.372-24.568 0-33.942l418.828-418.828c9.374-9.372 24.57-9.372 33.942 0.002z" />
<glyph unicode="&#xe93e;" glyph-name="chevron-right-regular" horiz-adv-x="512" d="M49.414 883.798l-39.598-39.596c-9.372-9.372-9.372-24.568 0-33.942l361.398-362.26-361.398-362.26c-9.372-9.372-9.372-24.568 0-33.942l39.598-39.598c9.372-9.372 24.568-9.372 33.942 0l418.828 418.828c9.372 9.372 9.372 24.568 0 33.942l-418.828 418.828c-9.374 9.374-24.57 9.374-33.942 0z" />
<glyph unicode="&#xe93f;" glyph-name="chevron-up-regular" horiz-adv-x="896" d="M12.202 241.414l39.598-39.598c9.372-9.372 24.568-9.372 33.942 0l362.258 361.398 362.26-361.396c9.372-9.372 24.568-9.372 33.942 0l39.598 39.598c9.372 9.372 9.372 24.568 0 33.942l-418.83 418.826c-9.372 9.372-24.568 9.372-33.942 0l-418.826-418.828c-9.374-9.374-9.374-24.57 0-33.942z" />
<glyph unicode="&#xe940;" glyph-name="circle-notch-regular" d="M576 902.046v-32.782c0-14.954 10.364-27.89 24.948-31.196 178.188-40.392 311.052-199.552 311.052-390.068 0-221.064-178.902-400-400-400-221.064 0-400 178.902-400 400 0 190.488 132.844 349.674 311.052 390.068 14.584 3.306 24.948 16.242 24.948 31.196v32.774c0 20.282-18.644 35.52-38.492 31.35-225.59-47.396-394.762-248.078-393.5-488.052 1.44-274.104 222.954-493.912 497.062-493.334 273.44 0.576 494.93 222.422 494.93 495.998 0 238.698-168.616 438.006-393.234 485.33-19.96 4.206-38.766-10.888-38.766-31.284z" />
<glyph unicode="&#xe941;" glyph-name="circle-regular" d="M512 944c-274 0-496-222-496-496s222-496 496-496 496 222 496 496-222 496-496 496zM512 48c-221 0-400 179-400 400s179 400 400 400 400-179 400-400-179-400-400-400z" />
<glyph unicode="&#xe942;" glyph-name="clipboard-regular" horiz-adv-x="768" d="M672 832h-160c0 70.6-57.4 128-128 128s-128-57.4-128-128h-160c-53 0-96-43-96-96v-704c0-53 43-96 96-96h576c53 0 96 43 96 96v704c0 53-43 96-96 96zM384 880c26.6 0 48-21.4 48-48s-21.4-48-48-48-48 21.4-48 48 21.4 48 48 48zM672 44c0-6.6-5.4-12-12-12h-552c-6.6 0-12 5.4-12 12v680c0 6.6 5.4 12 12 12h84v-72c0-13.2 10.8-24 24-24h336c13.2 0 24 10.8 24 24v72h84c6.6 0 12-5.4 12-12z" />
<glyph unicode="&#xe943;" glyph-name="clock-regular" d="M512 944c-274 0-496-222-496-496s222-496 496-496 496 222 496 496-222 496-496 496zM512 48c-221 0-400 179-400 400s179 400 400 400 400-179 400-400-179-400-400-400zM635.6 256.8l-169.8 123.4c-6.2 4.6-9.8 11.8-9.8 19.4v328.4c0 13.2 10.8 24 24 24h64c13.2 0 24-10.8 24-24v-283.4l133.6-97.2c10.8-7.8 13-22.8 5.2-33.6l-37.6-51.8c-7.8-10.6-22.8-13-33.6-5.2z" />
<glyph unicode="&#xe944;" glyph-name="clone-regular" d="M928 960h-640c-53.020 0-96-42.98-96-96v-96h-96c-53.020 0-96-42.98-96-96v-640c0-53.020 42.98-96 96-96h640c53.020 0 96 42.98 96 96v96h96c53.020 0 96 42.98 96 96v640c0 53.020-42.98 96-96 96zM724 32h-616c-6.627 0-12 5.373-12 12v0 616c0 6.627 5.373 12 12 12v0h84v-448c0-53.020 42.98-96 96-96h448v-84c0-6.627-5.373-12-12-12v0zM916 224h-616c-6.627 0-12 5.373-12 12v0 616c0 6.627 5.373 12 12 12v0h616c6.627 0 12-5.373 12-12v0-616c0-6.627-5.373-12-12-12v0z" />
<glyph unicode="&#xe945;" glyph-name="cog-regular" d="M905.030 486l63.686 36.764c18.852 10.882 27.992 33.084 22.354 54.108-22.808 85.062-67.684 161.094-128.116 221.594-15.36 15.376-39.15 18.492-57.97 7.622l-63.57-36.716c-19.003 13.766-40.597 26.458-63.374 37.030l-2.424 1.010v73.506c-0.003 22.134-14.977 40.77-35.347 46.334l-0.337 0.078c-83.522 22.214-172.234 22.242-255.86 0.002-21.038-5.596-35.688-24.642-35.688-46.412v-73.506c-25.201-11.582-46.795-24.274-66.951-38.833l1.153 0.793-63.57 36.716c-18.82 10.87-42.61 7.754-57.97-7.622-60.432-60.5-105.308-136.53-128.116-221.594-5.638-21.024 3.502-43.226 22.354-54.108l63.686-36.766c-1.165-11.392-1.83-24.618-1.83-37.999s0.665-26.606 1.963-39.645l-0.133 1.646-63.686-36.764c-18.852-10.882-27.992-33.084-22.354-54.108 22.808-85.062 67.684-161.094 128.116-221.594 15.36-15.376 39.15-18.492 57.97-7.622l63.57 36.716c19.003-13.767 40.597-26.458 63.375-37.029l2.423-1.009v-73.506c0.003-22.134 14.977-40.77 35.347-46.334l0.337-0.078c83.522-22.214 172.234-22.244 255.86-0.002 21.038 5.596 35.688 24.642 35.688 46.412v73.506c25.201 11.582 46.795 24.273 66.952 38.831l-1.154-0.793 63.57-36.716c18.82-10.87 42.61-7.754 57.97 7.622 60.432 60.5 105.308 136.532 128.116 221.594 5.638 21.024-3.502 43.226-22.354 54.108l-63.686 36.764c2.44 25.3 2.44 50.7 0 76zM799.672 359.962l87.638-50.578c-16.888-44.929-39.782-83.702-68.211-117.686l0.513 0.63-87.658 50.618c-63.968-54.794-73.318-60.154-152.336-88.058v-101.198c-20.329-3.646-43.73-5.73-67.618-5.73s-47.289 2.084-70.031 6.081l2.413-0.351v101.198c-79.008 27.9-88.392 33.284-152.336 88.058l-87.658-50.618c-27.916 33.354-50.809 72.127-66.783 114.303l-0.915 2.753 87.638 50.578c-15.26 82.598-15.268 93.438 0 176.076l-87.638 50.578c15.7 42.458 38.62 82.098 67.698 117.058l87.658-50.618c63.968 54.794 73.32 60.156 152.336 88.058v101.196c20.329 3.646 43.73 5.73 67.618 5.73s47.289-2.084 70.031-6.081l-2.413 0.351v-101.198c79.008-27.9 88.392-33.284 152.336-88.058l87.658 50.618c27.916-33.355 50.81-72.129 66.783-114.305l0.915-2.753-87.638-50.578c15.262-82.6 15.268-93.436 0-176.074zM512 640c-105.87 0-192-86.13-192-192s86.13-192 192-192 192 86.13 192 192-86.13 192-192 192zM512 352c-52.936 0-96 43.064-96 96 0 52.934 43.064 96 96 96s96-43.066 96-96c0-52.936-43.064-96-96-96z" />
<glyph unicode="&#xe946;" glyph-name="coin-regular" d="M512 832c-282.66 0-512-128.88-512-288v-224c0-141.44 229.34-256 512-256s512 114.56 512 256v224c0 159.12-229.34 288-512 288zM176 233.26c-51.16 28.42-80 60.34-80 86.74v56.54c23.25-18.142 49.489-34.623 77.344-48.32l2.656-1.18zM368 171.5c-48.49 7.684-91.58 19.046-132.841 34.195l4.841-1.555v96.18c36.167-13.231 79.238-24.551 123.633-31.958l4.367-0.602zM592 163.5c-25.62-2.2-52.2-3.56-80-3.56s-54.38 1.36-80 3.56v96.36c26.14-2.32 52.72-3.86 80-3.86s53.86 1.54 80 3.86zM784 204.080c-36.42-13.594-79.51-24.956-124.006-32.11l-3.994-0.53v96.32c48.762 8.009 91.833 19.329 133.213 34.195l-5.213-1.635zM928 320c0-26.4-28.84-58.32-80-86.74v93.78c30.511 14.877 56.75 31.358 81.011 50.258l-1.011-0.758zM512 352c-238 0-416 101.36-416 192s178 192 416 192 416-101.36 416-192-177.9-192-416-192z" />
<glyph unicode="&#xe947;" glyph-name="coins-regular" d="M640 960c-212 0-384-71.6-384-160v-105.2c-149-22-256-81.2-256-150.8v-448c0-88.4 172-160 384-160s384 71.6 384 160v105.4c149 22 256 81 256 150.6v448c0 88.4-172 160-384 160zM672 103.4c-20-23.4-120.8-71.4-288-71.4s-268 48-288 71.4v79c70.4-33.2 173.2-54.4 288-54.4s217.6 21.2 288 54.4v-79zM672 295.4c-20-23.4-120.8-71.4-288-71.4s-268 48-288 71.4v89.8c70.4-40 173.2-65.2 288-65.2s217.6 25.4 288 65.2v-89.8zM384 416c-159 0-288 43-288 96s129 96 288 96 288-43 288-96-129-96-288-96zM928 359.4c-14.2-16.6-69.8-45.2-160-60.8v95.4c62 9.2 117.4 24.2 160 44.4v-79zM928 551.4c-14.2-16.6-69.8-45.2-160-60.8v53.4c0 14.4-5 28.4-13.6 41.8 67.6 10.6 128 29.6 173.6 55.6v-90zM640 672c-10 0-19.6 0.6-29.4 1-52 15.8-113.6 26.4-180.8 29.8-47.8 17.2-77.8 40-77.8 65.2 0 53 129 96 288 96s288-43 288-96-129-96-288-96z" />
<glyph unicode="&#xe948;" glyph-name="comment-alt-dots-regular" d="M896 960h-768c-70.6 0-128-57.4-128-128v-576c0-70.6 57.4-128 128-128h192v-168c0-14.2 11.6-24 24-24 4.8 0 9.8 1.4 14.2 4.8l249.8 187.2h288c70.6 0 128 57.4 128 128v576c0 70.6-57.4 128-128 128zM928 256c0-17.6-14.4-32-32-32h-320l-160-120v120h-288c-17.6 0-32 14.4-32 32v576c0 17.6 14.4 32 32 32h768c17.6 0 32-14.4 32-32v-576zM256 608c-35.4 0-64-28.6-64-64s28.6-64 64-64 64 28.6 64 64-28.6 64-64 64zM512 608c-35.4 0-64-28.6-64-64s28.6-64 64-64 64 28.6 64 64-28.6 64-64 64zM768 608c-35.4 0-64-28.6-64-64s28.6-64 64-64 64 28.6 64 64-28.6 64-64 64z" />
<glyph unicode="&#xe949;" glyph-name="comment-alt-lines-regular" d="M896 960h-768c-70.6 0-128-57.4-128-128v-576c0-70.6 57.4-128 128-128h192v-168c0-14.2 11.6-24 24-24 4.8 0 9.8 1.4 14.2 4.8l249.8 187.2h288c70.6 0 128 57.4 128 128v576c0 70.6-57.4 128-128 128zM928 256c0-17.6-14.4-32-32-32h-320l-160-120v120h-288c-17.6 0-32 14.4-32 32v576c0 17.6 14.4 32 32 32h768c17.6 0 32-14.4 32-32v-576zM736 688h-448c-17.6 0-32-14.4-32-32v-32c0-17.6 14.4-32 32-32h448c17.6 0 32 14.4 32 32v32c0 17.6-14.4 32-32 32zM544 496h-256c-17.6 0-32-14.4-32-32v-32c0-17.6 14.4-32 32-32h256c17.6 0 32 14.4 32 32v32c0 17.6-14.4 32-32 32z" />
<glyph unicode="&#xe94a;" glyph-name="comment-alt-regular" d="M896 960h-768c-70.6 0-128-57.4-128-128v-576c0-70.6 57.4-128 128-128h192v-168c0-14.2 11.6-24 24-24 4.8 0 9.8 1.4 14.2 4.8l249.8 187.2h288c70.6 0 128 57.4 128 128v576c0 70.6-57.4 128-128 128zM928 256c0-17.6-14.4-32-32-32h-320l-160-120v120h-288c-17.6 0-32 14.4-32 32v576c0 17.6 14.4 32 32 32h768c17.6 0 32-14.4 32-32v-576z" />
<glyph unicode="&#xe94b;" glyph-name="comment-dots-regular" d="M288 544c-35.4 0-64-28.6-64-64s28.6-64 64-64 64 28.6 64 64-28.6 64-64 64zM512 544c-35.4 0-64-28.6-64-64s28.6-64 64-64 64 28.6 64 64-28.6 64-64 64zM736 544c-35.4 0-64-28.6-64-64s28.6-64 64-64 64 28.6 64 64-28.6 64-64 64zM512 896c-282.8 0-512-186.2-512-416 0-95.2 39.8-182.4 105.8-252.6-29.8-78.8-91.8-145.6-92.8-146.4-13.2-14-16.8-34.4-9.2-52s25-29 44.2-29c123 0 220 51.4 278.2 92.6 57.8-18.2 120.2-28.6 185.8-28.6 282.8 0 512 186.2 512 416s-229.2 416-512 416zM512 160c-53.4 0-106.2 8.2-156.8 24.2l-45.4 14.4-39-27.6c-28.6-20.2-67.8-42.8-115-58 14.6 24.2 28.8 51.4 39.8 80.4l21.2 56.2-41.2 43.6c-36.2 38.6-79.6 102.4-79.6 186.8 0 176.4 186.6 320 416 320s416-143.6 416-320-186.6-320-416-320z" />
<glyph unicode="&#xe94c;" glyph-name="comment-regular" d="M512 896c-282.8 0-512-186.2-512-416 0-95.2 39.8-182.4 105.8-252.6-29.8-78.8-91.8-145.6-92.8-146.4-13.2-14-16.8-34.4-9.2-52s25-29 44.2-29c123 0 220 51.4 278.2 92.6 57.8-18.2 120.2-28.6 185.8-28.6 282.8 0 512 186.2 512 416s-229.2 416-512 416zM512 160c-53.4 0-106.2 8.2-156.8 24.2l-45.4 14.4-39-27.6c-28.6-20.2-67.8-42.8-115-58 14.6 24.2 28.8 51.4 39.8 80.4l21.2 56.2-41.2 43.6c-36.2 38.6-79.6 102.4-79.6 186.8 0 176.4 186.6 320 416 320s416-143.6 416-320-186.6-320-416-320z" />
<glyph unicode="&#xe94d;" glyph-name="comments-alt-regular" horiz-adv-x="1152" d="M1024 640h-192v192c0 70.6-57.4 128-128 128h-576c-70.6 0-128-57.4-128-128v-320c0-70.6 57.4-128 128-128h64v-104c0-14.2 11.6-24 24-24 4.8 0 9.8 1.4 14.2 4.8l153.8 87v-155.8c0-70.6 57.4-128 128-128h192l217.8-123.2c4.4-3.2 9.4-4.8 14.2-4.8 12.4 0 24 9.8 24 24v104h64c70.6 0 128 57.4 128 128v320c0 70.6-57.4 128-128 128zM192 480h-64c-17.6 0-32 14.4-32 32v320c0 17.6 14.4 32 32 32h576c17.6 0 32-14.4 32-32v-320c0-17.6-14.4-32-32-32h-281.2l-22-12.4-112.8-63.8v76.2h-96zM1056 192c0-17.6-14.4-32-32-32h-160v-76.2l-134.8 76.2h-217.2c-17.6 0-32 14.4-32 32v192h224c70.6 0 128 57.4 128 128v32h192c17.6 0 32-14.4 32-32v-320z" />
<glyph unicode="&#xe94e;" glyph-name="comments-regular" horiz-adv-x="1152" d="M1064 187.6c55 54.2 88 122.2 88 196.4 0 160-153 292.2-352.4 315.8-63 115.2-211 196.2-383.6 196.2-229.8 0-416-143.2-416-320 0-74 33-142 88-196.4-30.6-61.4-74.6-109-75.4-109.8-12.6-13.4-16.2-33-8.8-50 7.2-17 24-28 42.4-28 107 0 193.4 40.4 250.4 77.6 18.4-4.2 37.4-7.4 56.8-9.8 62.8-114.8 210.2-195.6 382.6-195.6 41.6 0 81.6 4.8 119.6 13.6 57-37 143.2-77.6 250.4-77.6 18.4 0 35 11 42.4 28 7.2 17 3.8 36.6-8.8 50-0.8 0.6-45 48.2-75.6 109.6zM278.4 372.2l-34.2-22.2c-28.2-18.2-57-32.6-86.2-42.8 5.4 9.4 10.8 19.4 16 29.6l31 62.2-49.6 49c-27 26.8-59.4 70.6-59.4 128 0 121.4 146.6 224 320 224s320-102.6 320-224-146.6-224-320-224c-33 0-66 3.8-98 11.2l-39.6 9zM996.6 256l-49.4-48.8 31-62.2c5.2-10.2 10.6-20.2 16-29.6-29.2 10.2-58 24.6-86.2 42.8l-34.2 22.2-39.8-9.2c-32-7.4-65-11.2-98-11.2-108 0-204.4 40.2-262.6 99.4 202.6 21.6 358.6 154.8 358.6 316.6 0 6.8-0.8 13.4-1.4 20 128.8-29 225.4-113.6 225.4-212 0-57.4-32.4-101.2-59.4-128z" />
<glyph unicode="&#xe94f;" glyph-name="compass-regular" horiz-adv-x="992" d="M695.88 700.28l-288.68-131.94c-14.016-6.512-25.028-17.524-31.376-31.147l-0.164-0.393-131.94-288.68c-15.22-33.3 19.080-67.62 52.4-52.4l288.68 131.94c14.016 6.512 25.028 17.524 31.376 31.147l0.164 0.393 131.94 288.68c15.22 33.32-19.080 67.62-52.4 52.4zM541.16 402.84c-24.94-24.94-65.38-24.94-90.32 0s-24.94 65.38 0 90.32c24.94 24.94 65.38 24.94 90.32 0s24.94-65.38 0-90.32zM496 944c-273.94 0-496-222.060-496-496s222.060-496 496-496 496 222.060 496 496-222.060 496-496 496zM496 48c-220.56 0-400 179.44-400 400s179.44 400 400 400 400-179.44 400-400-179.44-400-400-400z" />
<glyph unicode="&#xe950;" glyph-name="copy-regular" horiz-adv-x="896" d="M867.882 828.118l-103.764 103.764c-17.373 17.373-41.372 28.118-67.882 28.118h-344.236c-53.020 0-96-42.98-96-96v-96h-160c-53.020 0-96-42.98-96-96v-640c0-53.020 42.98-96 96-96h448c53.020 0 96 42.98 96 96v96h160c53.020 0 96 42.98 96 96v536.236c0 26.51-10.745 50.509-28.118 67.882v0zM532 32h-424c-6.627 0-12 5.373-12 12v0 616c0 6.627 5.373 12 12 12v0h148v-448c0-53.020 42.98-96 96-96h192v-84c0-6.627-5.373-12-12-12v0zM788 224h-424c-6.627 0-12 5.373-12 12v0 616c0 6.627 5.373 12 12 12v0h212v-176c0-26.51 21.49-48 48-48h176v-404c0-6.627-5.373-12-12-12v0zM800 736h-128v128h19.264c3.182 0 6.234-1.264 8.486-3.514l96.736-96.736c2.171-2.172 3.514-5.171 3.514-8.485 0-0.001 0-0.001 0-0.002v0-19.264z" />
<glyph unicode="&#xe951;" glyph-name="credit-card-blank-regular" horiz-adv-x="1152" d="M1055.8 896h-959.6c-53.2 0-96.2-43-96.2-96v-704c0-53 43-96 96.2-96h959.6c53.2 0 96.2 43 96.2 96v704c0 53-43 96-96.2 96zM1043.8 96h-935.6c-6.6 0-12 5.4-12 12v680c0 6.6 5.4 12 12 12h935.6c6.6 0 12-5.4 12-12v-680c0-6.6-5.4-12-12-12zM384 232v-16c0-13.2-10.8-24-24-24h-144c-13.2 0-24 10.8-24 24v16c0 13.2 10.8 24 24 24h144c13.2 0 24-10.8 24-24zM768 232v-16c0-13.2-10.8-24-24-24h-272c-13.2 0-24 10.8-24 24v16c0 13.2 10.8 24 24 24h272c13.2 0 24-10.8 24-24z" />
<glyph unicode="&#xe952;" glyph-name="cube-regular" d="M478.2 945l-416-156c-37.4-14-62.2-50-62.2-90v-450.2c0-36.4 20.6-69.6 53-85.8l416-208c27-13.6 58.8-13.6 85.8 0l416 208c32.6 16.2 53 49.6 53 85.8v450.2c0 40-24.8 75.8-62.2 89.8l-416 156c-21.6 8.4-45.6 8.4-67.4 0.2zM512 855l416-156v-0.6l-416-169-416 169v0.6l416 156zM96 594.8l368-149.6v-380.4l-368 184v346zM560 65v380.2l368 149.6v-345.8l-368-184z" />
<glyph unicode="&#xe953;" glyph-name="database-regular" horiz-adv-x="896" d="M448 864c194.334 0 352-55.446 352-123.428v-9.142c0-67.984-157.666-123.43-352-123.43s-352 55.446-352 123.428v9.142c0 67.984 157.666 123.43 352 123.43zM800 593.964v-52.798c0-67.982-157.666-123.428-352-123.428s-352 55.446-352 123.428v52.798c75.626-55.928 214.042-81.964 352-81.964s276.374 26.036 352 81.964zM800 401.964v-53.668c0-67.982-157.666-123.428-352-123.428s-352 55.448-352 123.43v53.668c75.626-55.93 214.042-81.966 352-81.966s276.374 26.036 352 81.964zM800 209.964v-54.536c0-67.982-157.666-123.428-352-123.428s-352 55.446-352 123.428v54.536c75.626-55.928 214.042-81.964 352-81.964s276.374 26.036 352 81.964zM448 960c-173.896 0-448-46.52-448-219.428v-585.142c0-172.946 274.060-219.43 448-219.43 173.896 0 448 46.52 448 219.428v585.144c0 172.944-274.060 219.428-448 219.428z" />
<glyph unicode="&#xe954;" glyph-name="desktop-regular" horiz-adv-x="1152" d="M1056 960h-960c-53 0-96-43-96-96v-576c0-53 43-96 96-96h960c53 0 96 43 96 96v576c0 53-43 96-96 96zM1044 288h-936c-6.6 0-12 5.4-12 12v552c0 6.6 5.4 12 12 12h936c6.6 0 12-5.4 12-12v-552c0-6.6-5.4-12-12-12zM960-16c0-26.6-21.4-48-48-48h-672c-26.6 0-48 21.4-48 48s21.4 48 48 48h197.4l37.2 111.6c3.2 9.8 12.4 16.4 22.8 16.4h157.4c10.4 0 19.6-6.6 22.8-16.4l37.2-111.6h197.2c26.6 0 48-21.4 48-48z" />
<glyph unicode="&#xe955;" glyph-name="dice-d6-regular" horiz-adv-x="896" d="M863.76 727.74l-384 223.66c-9.097 5.404-20.055 8.598-31.76 8.598s-22.663-3.194-32.051-8.758l0.291 0.16-384-223.68c-19.94-11.6-32.24-33.22-32.24-56.62v-446.18c0-23.42 12.3-45.020 32.24-56.64l384-223.68c9.097-5.404 20.055-8.598 31.76-8.598s22.663 3.194 32.051 8.758l-0.291-0.16 384 223.68c19.94 11.62 32.24 33.24 32.24 56.64v446.18c0 23.4-12.3 45.020-32.24 56.64zM448 858.8l304.7-177.48-304.7-177.76-304.7 177.76 304.7 177.48zM96 597.76l304-177.32v-355.28l-304 177.080v355.52zM496 65.16v355.28l304 177.32v-355.52l-304-177.080z" />
<glyph unicode="&#xe956;" glyph-name="dollar-sign-regular" horiz-adv-x="576" d="M423.8 475.8l-232.6 66.4c-31.6 9-57.2 34.4-62.2 67-7.8 50.8 31.6 94.8 81 94.8h147.6c31.8 0 63-10 88.8-28.2 12.8-9 30-7.6 41 3.4l45.8 45.8c13.6 13.6 12.2 36.4-3 48.2-49.4 38.2-109.4 58.8-172.6 58.8h-5.6v96c0 17.6-14.4 32-32 32h-64c-17.6 0-32-14.4-32-32v-96h-5c-98.4 0-189.2-63.6-212.8-159.2-27.8-112.4 40.4-222.4 146-252.6l232.6-66.4c31.6-9 57.2-34.4 62.2-67 7.8-50.8-31.6-94.8-81-94.8h-147.6c-31.8 0-63 10-88.8 28.2-12.8 9-30 7.6-41-3.4l-45.8-45.8c-13.6-13.6-12.2-36.4 3-48.2 49.2-38.2 109.2-58.8 172.6-58.8h5.6v-96c0-17.6 14.4-32 32-32h64c17.6 0 32 14.4 32 32v96h5c98.4 0 189.2 63.6 212.8 159.2 27.8 112.4-40.4 222.4-146 252.6z" />
<glyph unicode="&#xe957;" glyph-name="download-regular" horiz-adv-x="1152" d="M1056 384h-184.2l92.2 92.2c60.2 60.2 17.6 163.8-67.8 163.8h-128v224c0 53-43 96-96 96h-192c-53 0-96-43-96-96v-224h-128c-85.2 0-128.4-103.4-67.8-163.8l92.2-92.2h-184.6c-53 0-96-43-96-96v-256c0-53 43-96 96-96h960c53 0 96 43 96 96v256c0 53-43 96-96 96zM256 544h224v320h192v-320h224l-320-320-320 320zM1056 32h-960v256h280.2l131.8-131.8c37.6-37.6 98.2-37.4 135.8 0l131.8 131.8h280.4v-256zM880 160c0 26.6 21.4 48 48 48s48-21.4 48-48-21.4-48-48-48-48 21.4-48 48z" />
<glyph unicode="&#xe958;" glyph-name="ellipsis-h-regular" d="M608 448c0-53-43-96-96-96s-96 43-96 96 43 96 96 96 96-43 96-96zM848 544c-53 0-96-43-96-96s43-96 96-96 96 43 96 96-43 96-96 96zM176 544c-53 0-96-43-96-96s43-96 96-96 96 43 96 96-43 96-96 96z" />
<glyph unicode="&#xe959;" glyph-name="ellipsis-v-regular" horiz-adv-x="256" d="M128 544c53 0 96-43 96-96s-43-96-96-96-96 43-96 96 43 96 96 96zM32 752c0-53 43-96 96-96s96 43 96 96-43 96-96 96-96-43-96-96zM32 144c0-53 43-96 96-96s96 43 96 96-43 96-96 96-96-43-96-96z" />
<glyph unicode="&#xe95a;" glyph-name="envelope-regular" d="M928 832h-832c-53.020 0-96-42.98-96-96v-576c0-53.020 42.98-96 96-96h832c53.020 0 96 42.98 96 96v576c0 53.020-42.98 96-96 96zM928 736v-81.61c-44.844-36.518-116.336-93.302-269.174-212.98-33.682-26.494-100.402-90.144-146.826-89.402-46.416-0.75-113.158 62.918-146.826 89.402-152.814 119.66-224.324 176.456-269.174 212.98v81.61h832zM96 160v371.204c45.828-36.502 110.818-87.724 209.876-165.292 43.714-34.41 120.268-110.372 206.124-109.91 85.434-0.462 161.018 74.398 206.106 109.894 99.056 77.566 164.064 128.802 209.894 165.306v-371.202h-832z" />
<glyph unicode="&#xe95b;" glyph-name="exchange-alt-regular" d="M1016.97 623.040l-192.32-192.32c-15.16-15.16-40.97-4.28-40.97 16.97l-0.014 144.31h-759.666c-13.254 0-24 10.746-24 24v48c0 13.254 10.746 24 24 24h759.666l0.020 144.324c0.002 21.366 25.898 32.044 40.97 16.97l192.312-192.312c9.374-9.372 9.376-24.57 0.002-33.942zM7.030 239.018l192.312-192.312c15.072-15.072 40.968-4.396 40.97 16.97l0.020 144.324h759.668c13.254 0 24 10.746 24 24v48c0 13.256-10.746 24-24 24h-759.666l-0.014 144.308c0 21.25-25.81 32.132-40.97 16.97l-192.32-192.32c-9.374-9.37-9.372-24.568 0-33.94z" />
<glyph unicode="&#xe95c;" glyph-name="exchange-regular" d="M1016.97 623.030l-200.75-200c-9.372-9.372-24.568-9.372-33.94 0l-39.252 39.252c-9.506 9.506-9.35 24.968 0.346 34.28l102.458 95.438h-821.832c-13.254 0-24 10.746-24 24v48c0 13.254 10.746 24 24 24h821.832l-102.456 95.438c-9.698 9.312-9.854 24.774-0.346 34.28l39.252 39.252c9.372 9.372 24.568 9.372 33.94 0l200.75-200c9.37-9.372 9.37-24.568-0.002-33.94zM7.030 239.030l200.75-200c9.372-9.372 24.568-9.372 33.94 0l39.252 39.252c9.506 9.506 9.35 24.968-0.346 34.28l-102.458 95.438h821.832c13.254 0 24 10.746 24 24v48c0 13.254-10.746 24-24 24h-821.832l102.456 95.438c9.698 9.312 9.854 24.774 0.346 34.28l-39.252 39.252c-9.372 9.372-24.568 9.372-33.94 0l-200.75-200c-9.372-9.372-9.372-24.568 0.002-33.94z" />
<glyph unicode="&#xe95d;" glyph-name="exclamation-circle-regular" d="M512 944c-273.914 0-496-222.166-496-496 0-273.994 222.086-496 496-496s496 222.006 496 496c0 273.834-222.086 496-496 496zM512 48c-221.064 0-400 178.862-400 400 0 220.99 178.944 400 400 400 220.982 0 400-178.942 400-400 0-221.060-178.862-400-400-400zM596 256c0-46.318-37.682-84-84-84s-84 37.682-84 84 37.682 84 84 84 84-37.682 84-84zM433.26 678.802l13.6-272c0.638-12.774 11.182-22.802 23.97-22.802h82.34c12.788 0 23.332 10.028 23.97 22.802l13.6 272c0.686 13.708-10.244 25.198-23.97 25.198h-109.54c-13.726 0-24.656-11.49-23.97-25.198z" />
<glyph unicode="&#xe95e;" glyph-name="exclamation-regular" horiz-adv-x="512" d="M347.708 864c13.748 0 24.686-11.526 23.968-25.256l-23.484-448c-0.668-12.75-11.2-22.744-23.968-22.744h-136.448c-12.766 0-23.3 9.994-23.968 22.744l-23.484 448c-0.72 13.73 10.218 25.256 23.968 25.256h183.416zM256 288c70.58 0 128-57.42 128-128s-57.42-128-128-128-128 57.42-128 128 57.42 128 128 128zM347.708 960h-183.416c-68.53 0-123.438-57.566-119.836-126.282l23.484-448c1.396-26.618 11.378-50.828 27.184-70.002-39.054-40.336-63.124-95.27-63.124-155.716 0-123.514 100.486-224 224-224s224 100.486 224 224c0 60.446-24.070 115.38-63.122 155.716 15.746 18.975 25.777 43.196 27.172 69.706l0.012 0.296 23.484 448c3.586 68.438-51.028 126.282-119.838 126.282z" />
<glyph unicode="&#xe95f;" glyph-name="exclamation-square-regular" horiz-adv-x="896" d="M896 800v-704c0-53.020-42.98-96-96-96h-704c-53.020 0-96 42.98-96 96v704c0 53.020 42.98 96 96 96h704c53.020 0 96-42.98 96-96zM800 108v680c0 6.627-5.373 12-12 12v0h-680c-6.627 0-12-5.373-12-12v0-680c0-6.627 5.373-12 12-12v0h680c6.627 0 12 5.373 12 12v0zM532 256c0-46.318-37.682-84-84-84s-84 37.682-84 84 37.682 84 84 84 84-37.682 84-84zM369.26 678.802l13.6-272c0.638-12.774 11.182-22.802 23.97-22.802h82.34c12.788 0 23.332 10.028 23.97 22.802l13.6 272c0.686 13.708-10.244 25.198-23.97 25.198h-109.54c-13.726 0-24.656-11.49-23.97-25.198z" />
<glyph unicode="&#xe960;" glyph-name="exclamation-triangle-regular" horiz-adv-x="1152" d="M497.494 550.59l13.176-224c0.746-12.686 11.252-22.59 23.958-22.59h82.74c12.759 0 23.192 9.956 23.955 22.523l0.003 0.067 13.176 224c0.81 13.786-10.15 25.41-23.958 25.41h-109.094c-13.806 0-24.766-11.624-23.956-25.41zM660 192c0-46.392-37.608-84-84-84s-84 37.608-84 84 37.608 84 84 84 84-37.608 84-84zM659.154 912.030c-36.866 63.902-129.374 64.018-166.308 0l-479.892-832.056c-36.844-63.866 9.282-143.974 83.154-143.974h959.772c73.73 0 120.070 79.986 83.154 143.974l-479.88 832.056zM106.382 49.996l459.224 795.988c4.618 8.004 16.17 8.004 20.788 0l459.224-795.986c4.616-8-1.158-17.996-10.394-17.996h-918.448c-9.234-0.002-15.008 9.994-10.394 17.994z" />
<glyph unicode="&#xe961;" glyph-name="expand-regular" horiz-adv-x="896" d="M0 600v248c0 26.6 21.4 48 48 48h248c13.2 0 24-10.8 24-24v-48c0-13.2-10.8-24-24-24h-200v-200c0-13.2-10.8-24-24-24h-48c-13.2 0-24 10.8-24 24zM576 872v-48c0-13.2 10.8-24 24-24h200v-200c0-13.2 10.8-24 24-24h48c13.2 0 24 10.8 24 24v248c0 26.6-21.4 48-48 48h-248c-13.2 0-24-10.8-24-24zM872 320h-48c-13.2 0-24-10.8-24-24v-200h-200c-13.2 0-24-10.8-24-24v-48c0-13.2 10.8-24 24-24h248c26.6 0 48 21.4 48 48v248c0 13.2-10.8 24-24 24zM320 24v48c0 13.2-10.8 24-24 24h-200v200c0 13.2-10.8 24-24 24h-48c-13.2 0-24-10.8-24-24v-248c0-26.6 21.4-48 48-48h248c13.2 0 24 10.8 24 24z" />
<glyph unicode="&#xe962;" glyph-name="external-link-alt-regular" d="M864 384h-32c-17.673 0-32-14.327-32-32v0-308c0-6.627-5.373-12-12-12v0h-680c-6.627 0-12 5.373-12 12v0 680c0 6.627 5.373 12 12 12v0h308c17.673 0 32 14.327 32 32v0 32c0 17.673-14.327 32-32 32v0h-320c-53.019 0-96-42.981-96-96v0-704c0-53.019 42.981-96 96-96v0h704c53.019 0 96 42.981 96 96v0 320c0 17.673-14.327 32-32 32v0zM1000 960h-272c-13.246-0.012-23.979-10.753-23.979-24 0-6.622 2.682-12.618 7.019-16.96l96.38-96.42-544.4-544.4c-4.361-4.346-7.059-10.358-7.059-17s2.698-12.654 7.058-16.999l45.261-45.261c4.346-4.361 10.358-7.059 17-7.059s12.654 2.698 16.999 7.058l544.401 544.421 96.42-96.4c4.336-4.301 10.308-6.959 16.9-6.959 13.248 0 23.988 10.733 24 23.978v272.001c0 13.255-10.745 24-24 24v0z" />
<glyph unicode="&#xe963;" glyph-name="external-link-regular" d="M995.2 960l-326.4-0.34c-15.906 0-28.8-12.894-28.8-28.8v0-66.62c0-0.002 0-0.004 0-0.006 0-15.906 12.894-28.8 28.8-28.8 0.204 0 0.407 0.002 0.61 0.006h-0.030l147.26 5.44 4.12-4.12-557.72-557.74c-4.361-4.346-7.059-10.358-7.059-17s2.698-12.654 7.058-16.999l46.001-46.001c4.346-4.361 10.358-7.059 17-7.059s12.654 2.698 16.999 7.058l557.721 557.741 4.12-4.12-5.44-147.26c-0.004-0.173-0.006-0.376-0.006-0.58 0-15.906 12.894-28.8 28.8-28.8 0.002 0 0.004 0 0.006 0h66.62c15.906 0 28.8 12.894 28.8 28.8v0l0.34 326.4c0 15.906-12.894 28.8-28.8 28.8v0zM864 384h-32c-17.673 0-32-14.327-32-32v0-308c0-6.627-5.373-12-12-12v0h-680c-6.627 0-12 5.373-12 12v0 680c0 6.627 5.373 12 12 12v0h308c17.673 0 32 14.327 32 32v0 32c0 17.673-14.327 32-32 32v0h-320c-53.019 0-96-42.981-96-96v0-704c0-53.019 42.981-96 96-96v0h704c53.019 0 96 42.981 96 96v0 320c0 17.673-14.327 32-32 32v0z" />
<glyph unicode="&#xe964;" glyph-name="external-link-square-alt-regular" horiz-adv-x="896" d="M800 896h-704c-53.020 0-96-42.98-96-96v-704c0-53.020 42.98-96 96-96h704c53.020 0 96 42.98 96 96v704c0 53.020-42.98 96-96 96zM788 96h-680c-6.627 0-12 5.373-12 12v0 680c0 6.627 5.373 12 12 12v0h680c6.627 0 12-5.373 12-12v0-680c0-6.627-5.373-12-12-12v0zM680 704h-271.97c-21.316 0-32.078-25.86-16.97-40.97l96.374-96.402-288.404-288.404c-9.372-9.372-9.372-24.568 0-33.942l45.254-45.254c9.374-9.372 24.57-9.372 33.942 0l288.402 288.402 96.402-96.384c15.026-15.026 40.97-4.47 40.97 16.97v271.984c0 13.254-10.746 24-24 24z" />
<glyph unicode="&#xe965;" glyph-name="external-link-square-regular" horiz-adv-x="896" d="M800 896h-704c-53.020 0-96-42.98-96-96v-704c0-53.020 42.98-96 96-96h704c53.020 0 96 42.98 96 96v704c0 53.020-42.98 96-96 96zM788 96h-680c-6.627 0-12 5.373-12 12v0 680c0 6.627 5.373 12 12 12v0h680c6.627 0 12-5.373 12-12v0-680c0-6.627-5.373-12-12-12v0zM680 704l-272-0.29c-13.254 0-24-10.746-24-24v-55.51c0-13.444 11.044-24.266 24.486-23.996l116.002 4.282-325.458-325.456c-9.372-9.372-9.372-24.568 0-33.942l46.060-46.058c9.372-9.372 24.568-9.372 33.94 0l325.458 325.458-4.282-116.002c-0.272-13.442 10.55-24.484 23.996-24.484h55.51c13.256 0 24 10.746 24 24l0.288 271.998c0 13.254-10.746 24-24 24z" />
<glyph unicode="&#xe966;" glyph-name="eye-regular" horiz-adv-x="1152" d="M576 672c-22.421-0.361-43.864-3.991-64.051-10.433l1.571 0.433c8.982-15.522 14.338-34.12 14.48-53.959v-0.041c0-61.856-50.144-112-112-112v0c-19.88 0.142-38.478 5.498-54.535 14.765l0.535-0.285c-5.551-18.541-8.746-39.847-8.746-61.899 0-123.391 100.029-223.42 223.42-223.42s223.42 100.029 223.42 223.42c0 123.391-100.029 223.42-223.42 223.42-0.237 0-0.474 0-0.711-0.001h0.037zM1145.040 477.2c-108.46 211.62-323.18 354.8-569.040 354.8s-460.64-143.28-569.040-354.82c-4.387-8.495-6.959-18.542-6.959-29.19s2.572-20.695 7.129-29.553l-0.17 0.363c108.46-211.62 323.18-354.8 569.040-354.8s460.64 143.28 569.040 354.82c4.387 8.495 6.959 18.542 6.959 29.19s-2.572 20.695-7.129 29.553l0.17-0.363zM576 160c-197.3 0-378.18 110-475.86 288 97.68 178 278.54 288 475.86 288s378.18-110 475.86-288c-97.66-178-278.54-288-475.86-288z" />
<glyph unicode="&#xe967;" glyph-name="eye-slash-regular" horiz-adv-x="1280" d="M1268 18l-1196 934.98c-5.426 4.373-12.404 7.020-20 7.020-10.077 0-19.066-4.658-24.932-11.938l-0.048-0.062-20-24.98c-4.385-5.43-7.040-12.417-7.040-20.024 0-10.086 4.666-19.082 11.958-24.947l0.062-0.048 1196-934.98c5.426-4.373 12.404-7.020 20-7.020 10.077 0 19.066 4.658 24.932 11.938l0.048 0.062 20 24.98c4.385 5.43 7.040 12.417 7.040 20.024 0 10.086-4.666 19.082-11.958 24.947l-0.062 0.048zM593.58 667.060l269.58-210.76c-4.44 119.88-102.2 215.7-223.16 215.7-16.458-0.032-32.48-1.83-47.906-5.214l1.486 0.274zM686.42 228.92l-269.58 210.76c4.46-119.86 102.22-215.68 223.16-215.68 16.46 0.036 32.481 1.826 47.913 5.193l-1.493-0.273zM640 736c197.3 0 378.18-110 475.86-288-25.323-45.849-54.532-85.384-88.205-120.616l0.205 0.216 75.48-59c40.718 43.472 75.93 92.859 104.048 146.547l1.752 3.673c4.387 8.495 6.959 18.542 6.959 29.19s-2.572 20.695-7.129 29.553l0.17-0.363c-108.56 211.62-323.28 354.8-569.14 354.8-73.4 0-143.42-14-209.26-37.62l92.82-72.58c37.88 8.6 76.68 14.2 116.44 14.2zM640 160c-197.3 0-378.16 110-475.86 288 25.353 45.842 54.593 85.37 88.3 120.59l-0.2-0.21-75.48 59c-40.712-43.466-75.918-92.847-104.029-146.529l-1.751-3.671c-4.387-8.495-6.959-18.542-6.959-29.19s2.572-20.695 7.129-29.553l-0.17 0.363c108.46-211.62 323.18-354.8 569.020-354.8 73.4 0 143.42 14.1 209.26 37.62l-92.82 72.56c-37.88-8.58-76.66-14.18-116.44-14.18z" />
<glyph unicode="&#xe968;" glyph-name="file-chart-line-regular" horiz-adv-x="768" d="M262.4 320h-44.8c-12.8 0-25.6-12.8-25.6-25.6v-140.8c0-12.8 12.8-25.6 25.6-25.6h44.8c12.8 0 25.6 12.8 25.6 25.6v140.8c0 12.8-12.8 25.6-25.6 25.6zM406.4 448h-44.8c-12.8 0-25.6-12.8-25.6-25.6v-268.8c0-12.8 12.8-25.6 25.6-25.6h44.8c12.8 0 25.6 12.8 25.6 25.6v268.8c0 12.8-12.8 25.6-25.6 25.6zM505.6 128h44.8c12.8 0 25.6 12.8 25.6 25.6v204.8c0 12.8-12.8 25.6-25.6 25.6h-44.8c-12.8 0-25.6-12.8-25.6-25.6v-204.8c0-12.8 12.8-25.6 25.6-25.6zM739.66 764.040l-167.78 167.76c-18 18-42.4 28.2-67.78 28.2h-408.12c-52.98-0.2-95.98-43.2-95.98-96.18v-831.84c0-52.98 43-95.98 95.98-95.98h575.88c53 0 96.14 43 96.14 95.98v664.080c0 25.38-10.34 49.98-28.34 67.98zM511.9 856.020l152.18-152.16h-152.18v152.16zM672 31.98h-576.020v831.84h319.94v-207.96c0-26.6 21.4-47.98 48-47.98h208.080v-575.9z" />
<glyph unicode="&#xe969;" glyph-name="file-chart-pie-regular" horiz-adv-x="768" d="M739.66 764.040l-167.78 167.76c-18 18-42.4 28.2-67.78 28.2h-408.12c-52.98-0.2-95.98-43.2-95.98-96.18v-831.84c0-52.98 43-95.98 95.98-95.98h575.88c53 0 96.14 43 96.14 95.98v664.080c0 25.38-10.34 49.98-28.34 67.98zM511.9 856.020l152.18-152.16h-152.18v152.16zM672 31.98h-576.020v831.84h319.94v-207.96c0-26.6 21.4-47.98 48-47.98h208.080v-575.9zM320 444.78c-73.040-14.82-128-79.36-128-156.78 0-88.36 71.64-160 160-160 77.4 0 141.94 54.98 156.78 128h-188.78v188.78zM384 508.78v-188.78h188.78c2.047 9.62 3.22 20.673 3.22 32v0c0 88.36-71.64 160-160 160-10.96 0-21.66-1.12-32-3.22z" />
<glyph unicode="&#xe96a;" glyph-name="file-image-regular" horiz-adv-x="768" d="M739.8 764.2l-167.8 167.8c-18 18-42.4 28.2-67.8 28.2h-408.2c-53-0.2-96-43.2-96-96.2v-832c0-53 43-96 96-96h576c53 0 96 43 96 96v664.2c0 25.4-10.2 50-28.2 68zM664.2 704h-152.2v152.2l152.2-152.2zM96 32v832h320v-208c0-26.6 21.4-48 48-48h208v-576h-576zM160 128h448v256l-47 47c-9.4 9.4-24.6 9.4-34 0l-175-175-79 79c-9.4 9.4-24.6 9.4-34 0l-79-79v-128zM256 608c-53 0-96-43-96-96s43-96 96-96 96 43 96 96-43 96-96 96z" />
<glyph unicode="&#xe96b;" glyph-name="file-regular" horiz-adv-x="768" d="M739.8 764.2l-167.8 167.8c-18 18-42.4 28.2-67.8 28.2h-408.2c-53-0.2-96-43.2-96-96.2v-832c0-53 43-96 96-96h576c53 0 96 43 96 96v664.2c0 25.4-10.2 50-28.2 68zM664.2 704h-152.2v152.2l152.2-152.2zM96 32v832h320v-208c0-26.6 21.4-48 48-48h208v-576h-576z" />
<glyph unicode="&#xe96c;" glyph-name="filter-regular" d="M927.904 960h-831.79c-85.276 0-128.302-103.462-67.882-163.882l323.768-323.882v-344.236c0-30.216 14.226-58.67 38.4-80l128-94.132c62.546-43.71 153.6-3.076 153.6 76.8v441.568l323.786 323.882c60.298 60.298 17.564 163.882-67.882 163.882zM576 512v-480l-128 96v384l-352 352h832l-352-352z" />
<glyph unicode="&#xe96d;" glyph-name="fingerprint-regular" d="M512.24 468.080c-26.5 0-48-21.48-48-48 2.28-144.5-16.28-283.8-55.4-423.1-5.46-19.44 4.3-60.98 46.24-60.98 20.96 0 40.22 13.84 46.18 35.040 27.060 95.82 62.080 250.82 58.96 449.040 0.020 26.5-21.46 48-47.98 48zM510.52 631.54c-122.52 0.14-208.020-94.14-206.32-202.18 1.5-95.88-7.5-191.82-26.74-285.1-5.38-25.96 11.34-51.38 37.28-56.72 26.1-5.34 51.34 11.32 56.72 37.28 20.68 100.18 30.34 203.16 28.74 306.040-0.82 51.9 39.84 104.98 108.9 104.68 62.62-0.94 114.3-50.68 115.24-110.94 1.54-96.1-5.62-192.66-21.22-287.1-4.34-26.12 13.38-50.84 39.52-55.16 39.94-6.66 53.62 30.2 55.16 39.54 16.56 100.060 24.12 202.42 22.54 304.22-1.76 111.6-95.88 203.76-209.82 205.44zM289.14 671.1c-20.6 16.68-50.74 13.6-67.52-6.96-51.24-63-78.78-142.56-77.5-224 1.18-75.16-4.94-150.54-18.22-224.1-4.68-26.1 12.62-51.060 38.72-55.78 40.22-7 54.14 29.62 55.78 38.72 14.38 79.68 21 161.32 19.72 242.66-0.94 59.76 18.4 115.76 56 161.94 16.7 20.56 13.58 50.78-6.98 67.52zM508.080 795.76c-30.82 0.82-61.74-2.88-91.56-9.94-25.78-6.12-41.74-31.96-35.66-57.78 6.12-25.78 32-41.66 57.78-35.66 22.1 5.22 44.94 7.54 68 7.38 150.86-2.26 275.46-123 277.76-269.16 1.18-75.76-2.56-152.22-11.16-227.26-3-26.34 15.9-50.16 42.22-53.16 33.44-3.9 51.020 23.76 53.16 42.22 7.643 63.285 12.004 136.566 12.004 210.866 0 10.138-0.081 20.257-0.243 30.356l0.019-1.522c-3.12 197.5-170.14 360.66-372.32 363.66zM1012.22 552.86c-5.72 25.84-31.020 42.4-57.22 36.54-25.88-5.72-42.24-31.32-36.52-57.22 9.42-42.82 9.82-74.82 9.4-123.2-0.22-26.54 21.1-48.18 47.6-48.4h0.4c26.34 0 47.78 21.22 48 47.6 0.36 44.36 0.8 88.22-11.66 144.68zM931.98 734.3c-97.4 138.78-256.78 223.12-426.36 225.66-139.58 1.68-268.68-49.78-364.7-145.84-92.74-92.86-142.72-216.2-140.64-347.42l-0.24-42.94c-0.78-26.5 20.060-48.62 46.56-49.38 0.46-0.040 0.96-0.040 1.44-0.040 25.84 0 47.18 20.6 47.94 46.6l0.32 47.28c-1.66 105 38.32 203.72 112.56 278 77.52 77.6 182.68 119.34 295.36 117.72 138.9-2.060 269.46-71.12 349.24-184.78 15.22-21.72 45.12-26.9 66.84-11.72 21.68 15.24 26.92 45.18 11.68 66.86z" />
<glyph unicode="&#xe96e;" glyph-name="flag-alt-regular" d="M945 960c-14 0-28.6-3-42.4-9.2-101-45.4-175.6-60.6-238.2-60.6-132.2 0-209 69-361.6 69-56.8 0-124.4-9.8-209-36-5.2 21-23.2 36.8-45.8 36.8-26.6 0-48-21.4-48-48v-952c0-13.2 10.8-24 24-24h48c13.2 0 24 10.8 24 24v203.8c74.6 23.6 139.2 33 197 33 162.4 0 275.6-68.8 438.2-68.8 70.6 0 150.2 13 247.4 50 28 10.8 45.6 35.8 45.6 62.4v652.8c-0.2 40.8-37.4 66.8-79.2 66.8zM928 261.8c-70.6-25.4-135.2-37.8-197-37.8-151 0-257 68.8-438.2 68.8-63.8 0-129-9.4-197-28.4v558.6c79.6 27 147.6 40.2 207 40.2 132.6 0 210.4-69 361.6-69 80.6 0 164.6 20 263.6 63v-595.4z" />
<glyph unicode="&#xe96f;" glyph-name="flask-regular" horiz-adv-x="896" d="M874.4 153l-234.4 377v334h40c13.2 0 24 10.8 24 24v48c0 13.2-10.8 24-24 24h-464c-13.2 0-24-10.8-24-24v-48c0-13.2 10.8-24 24-24h40v-334l-234.4-377c-58.6-94.2 9-217 120.2-217h612.4c111.4 0 178.8 123 120.2 217zM754.2 32h-612.4c-36.2 0-57.4 40.2-38.6 70.4l234.4 377c9.4 15.2 14.4 32.8 14.4 50.6v334h192v-334c0-18 5-35.4 14.4-50.6l234.4-377c18.8-30.2-2.2-70.4-38.6-70.4z" />
<glyph unicode="&#xe970;" glyph-name="folder-regular" d="M928 704h-384l-109.26 109.26c-12 12-28.28 18.74-45.26 18.74h-293.48c-53.020 0-96-42.98-96-96v-576c0-53.020 42.98-96 96-96h832c53.020 0 96 42.98 96 96v448c0 53.020-42.98 96-96 96zM928 160h-832v576h280.24l109.26-109.26c12-12 28.28-18.74 45.26-18.74h397.24v-448z" />
<glyph unicode="&#xe971;" glyph-name="frown-open-regular" horiz-adv-x="992" d="M496 944c-274 0-496-222-496-496s222-496 496-496 496 222 496 496-222 496-496 496zM496 48c-220.6 0-400 179.4-400 400s179.4 400 400 400 400-179.4 400-400-179.4-400-400-400zM400 544c0 35.4-28.6 64-64 64s-64-28.6-64-64 28.6-64 64-64 64 28.6 64 64zM656 608c-35.4 0-64-28.6-64-64s28.6-64 64-64 64 28.6 64 64-28.6 64-64 64zM496 384c-71.2 0-177.6-42.6-191.6-122.4-4-23.6 18-43 41-36.2 62.4 19.2 118.8 30.6 150.6 30.6s88.2-11.4 150.6-30.6c22.8-7 45 12.6 41 36.2-14 79.8-120.4 122.4-191.6 122.4z" />
<glyph unicode="&#xe972;" glyph-name="frown-regular" horiz-adv-x="992" d="M496 944c-274 0-496-222-496-496s222-496 496-496 496 222 496 496-222 496-496 496zM496 48c-220.6 0-400 179.4-400 400s179.4 400 400 400 400-179.4 400-400-179.4-400-400-400zM336 480c35.4 0 64 28.6 64 64s-28.6 64-64 64-64-28.6-64-64 28.6-64 64-64zM656 608c-35.4 0-64-28.6-64-64s28.6-64 64-64 64 28.6 64 64-28.6 64-64 64zM496 352c-80.4 0-156-35.4-207.6-97.2-17-20.4-14.2-50.6 6.2-67.6 20.4-16.8 50.6-14.2 67.6 6.2 33.2 39.8 82 62.8 133.8 62.8s100.6-22.8 133.8-62.8c16.2-19.4 46.2-23.8 67.6-6.2 20.4 17 23 47.2 6.2 67.6-51.6 61.8-127.2 97.2-207.6 97.2z" />
<glyph unicode="&#xe973;" glyph-name="gem-regular" horiz-adv-x="1152" d="M928 960h-704c-8 0-15.6-4-20-10.8l-200-294.4c-5.8-8.8-5.2-20.4 1.4-28.4l552-681.6c9.6-11.8 27.6-11.8 37.2 0l552 681.6c6.6 8.2 7.2 19.6 1.4 28.4l-199.8 294.4c-4.6 6.8-12 10.8-20.2 10.8zM889.4 864l126.6-192h-136.8l-103.4 192h113.6zM485.2 864h181.4l103.4-192h-388l103.2 192zM262.6 864h113.6l-103.4-192h-136.8l126.6 192zM176.6 576h102.8l136.6-320-239.4 320zM382.4 576h387.2l-193.6-486.6-193.6 486.6zM736 256l136.4 320h102.8l-239.2-320z" />
<glyph unicode="&#xe974;" glyph-name="genderless-regular" horiz-adv-x="576" d="M288 640c105.8 0 192-86.2 192-192s-86.2-192-192-192-192 86.2-192 192 86.2 192 192 192zM288 736c-159 0-288-129-288-288s129-288 288-288 288 129 288 288-129 288-288 288z" />
<glyph unicode="&#xe975;" glyph-name="gift-regular" d="M928 672h-52.2c12.4 24.2 20.2 51 20.2 80 0 97-79 176-176 176-83.2 0-137-42.6-206-136.6-69 94-122.8 136.6-206 136.6-97 0-176-79-176-176 0-29 7.6-55.8 20.2-80h-56.2c-53 0-96-43-96-96v-256c0-17.6 14.4-32 32-32h32v-214.8c0-58 47.2-105.2 105.2-105.2h685.6c58 0 105.2 47.2 105.2 105.2v214.8h32c17.6 0 32 14.4 32 32v256c0 53-43 96-96 96zM464 64h-294.8c-5 0-9.2 4-9.2 9.2v214.8h224v96h-288v192h368v-512zM307.8 672c-44.2 0-80 35.8-80 80s35.8 80 80 80c44 0 75-15.2 168.2-154l4-6h-172.2zM551.8 678c93.2 138.8 124.2 154 168.2 154 44.2 0 80-35.8 80-80s-35.8-80-80-80h-172.2l4 6zM928 384h-288v-96h224v-214.8c0-5-4-9.2-9.2-9.2h-294.8v512h368v-192z" />
<glyph unicode="&#xe976;" glyph-name="globe-africa-regular" horiz-adv-x="992" d="M496 944c-273.92 0-496-222.060-496-496s222.080-496 496-496 496 222.060 496 496-222.080 496-496 496zM496 48c-220.56 0-400 179.44-400 400s179.44 400 400 400c21.84 0 43.1-2.24 64-5.62v-43.4c0-17.12-13.88-31-31-31h-48.42c-10.36 0-20.040-5.18-25.78-13.8l-16.16-24.22c-4.28-6.42-10.8-11-18.28-12.88l-28.9-7.22c-13.592-3.477-23.48-15.614-23.48-30.062 0-0.006 0-0.013 0-0.019v0.001-8.8c0-17.12 13.88-31 31-31h180.18c8.22 0 16.1-3.26 21.92-9.080l13.84-13.84c5.82-5.82 13.7-9.080 21.92-9.080h20.18c17.12 0 31-13.88 31-31 0-13.34-8.54-25.18-21.2-29.4l-94.62-31.54c-7.8-2.6-16.3-2-23.66 1.68l-29.44 14.72c-14.235 7.271-31.049 11.534-48.858 11.54h-1.782c-23.64 0-46.64-7.66-65.56-21.86l-55.16-41.38c-26.675-20.11-43.74-51.737-43.74-87.35 0-0.004 0-0.007 0-0.011v0.001-28.12c0-28.98 11.52-56.76 32-77.26 19.774-19.77 47.089-31.998 77.26-32h51.76c17.12 0 31-13.88 31-31v-59.76c0-24.5 5.7-48.66 16.66-70.58 9.4-18.8 28.62-30.68 49.64-30.68 18.56 0 35.88 9.28 46.18 24.72l26.060 39.1c14.799 22.013 31.279 41.137 49.767 58.109l0.233 0.211c4.94 4.52 8.28 10.52 9.52 17.12l8.6 45.66c0.88 4.66 2.82 9.060 5.66 12.86l37.48 49.96c4.020 5.36 6.2 11.9 6.2 18.6v22.68c0 17.12-13.88 31-31 31h-16.42c-10.36 0-20.040 5.18-25.78 13.8l-26.48 39.72c-11.34 17-3.4 40.14 15.98 46.6l5.3 1.76c9.080 3.020 19.040 1.7 27-3.62l36.42-24.28c4.837-3.258 10.795-5.2 17.206-5.2 5.049 0 9.816 1.205 14.031 3.342l-0.177-0.081 30.78 15.4c10.5 5.24 17.14 15.98 17.14 27.72v13.86c0 17.12 13.88 31 31 31h36.88c7.64-30.82 12.14-62.86 12.14-96-0.040-220.58-179.48-400.020-400.040-400.020z" />
<glyph unicode="&#xe977;" glyph-name="globe-americas-regular" horiz-adv-x="992" d="M496 944c-274 0-496-222-496-496s222-496 496-496 496 222 496 496-222 496-496 496zM432 842.4v-22.6c0-23.8-25-39.2-46.4-28.6l-48 24c29.8 12.8 61.4 21.8 94.4 27.2zM496 102.8v-54.8c-220.6 0-400 179.4-400 400 0 58.2 12.8 113.4 35.2 163.4 19.8-29.4 50.4-74.8 69.2-102.2 10.4-15.2 22.4-29.2 36.2-41.4l1.6-1.4c19-17.2 40.4-32 63.2-43.6 28-14 68.8-36.4 97.6-52.2 20.4-11.2 33-32.6 33-56v-64c0-17 6.8-33.2 18.8-45.2 30-30.2 48.6-77.4 45.2-102.6zM581.4 57.4l34.8 93.8c4 11 6.6 22.4 9.6 33.8 2.2 8 6.4 15.4 12.4 21.4l22.6 22.6c17.6 17.4 27.4 41.2 27.4 66 0 16.2-6.4 31.8-17.8 43.2l-27.4 27.4c-12 12-28.2 18.8-45.2 18.8h-133.8c-18.8 9.4-43 64-64 64s-41.8 5-60.6 14.4l-22.2 11c-8 4-13.2 12.4-13.2 21.4 0 10.2 6.6 19.4 16.4 22.6l62.4 20.8c10.8 3.6 22.6 1.2 31-6.2l18.6-16.2c3-2.6 6.6-4 10.4-4h11.2c12 0 19.6 12.6 14.4 23.2l-31.2 62.4c-3.2 6.2-1.8 13.8 3.2 18.6l19.8 19.2c3 3 7 4.6 11.2 4.6h18c4.2 0 8.4 1.6 11.4 4.6l16 16c6.2 6.2 6.2 16.4 0 22.6l-9.4 9.4c-6.2 6.2-6.2 16.4 0 22.6l30 30c12.4 12.4 12.4 32.8 0 45.2l-56.6 56.6c5 0.2 10 0.8 15.2 0.8 156.4 0 291.6-90.4 357.4-221.4l-26-13c-7.4-3.8-13.8-9.4-18.4-16.2l-39.2-58.8c-10.8-16.2-10.8-37.2 0-53.2l36-54c6.6-10 16.8-17 28.2-20l58.4-14.6c-21.6-168-147.8-303.8-311-339.4z" />
<glyph unicode="&#xe978;" glyph-name="globe-asia-regular" horiz-adv-x="992" d="M806.62 315.020l-23.82 23.82c-2.892 2.897-4.68 6.897-4.68 11.314 0 0.002 0 0.004 0 0.006v0 25.84c0 4.42-3.58 8-8 8h-12.12c-3.56 0-6.7-2.36-7.68-5.76l-8.4-28.94c-0.999-3.355-4.055-5.76-7.674-5.76-0.002 0-0.004 0-0.006 0h-7.6c-0.003 0-0.006 0-0.010 0-3.303 0-6.137 2.007-7.35 4.868l-0.020 0.052-10.7 25.7c-2.474 5.839-8.157 9.86-14.779 9.86 0 0-0.001 0-0.001 0h-24.18c-3.32 0-6.58-1.040-9.28-2.96l-47.42-33.78c-3.227-2.333-6.91-4.382-10.827-5.973l-0.353-0.127-78.68-31.48c-5.945-2.421-10.060-8.156-10.060-14.851 0-0.003 0-0.006 0-0.009v0-20.42c0-4.24 1.68-8.32 4.68-11.32l23.82-23.82c6-6 14.14-9.38 22.62-9.38h20.68c2.62 0 5.22 0.32 7.76 0.96l42.54 10.64c18.24 4.56 37.54-0.78 50.84-14.080l26.020-26.020c6-6 14.14-9.38 22.62-9.38h30.32c8.48 0 16.62 3.38 22.62 9.38l19.14 19.14c6 6 9.38 14.14 9.38 22.62v49.24c-0.020 8.48-3.4 16.62-9.4 22.62zM496 944c-273.92 0-496-222.060-496-496s222.080-496 496-496 496 222.060 496 496-222.080 496-496 496zM496 48c-198.74 0-363.6 145.82-394.38 336h125.14c8.48 0 16.62 3.38 22.62 9.38l38.94 38.92c7.72 7.72 20.74 5.6 25.62-4.16l45.24-90.46c5.42-10.84 16.5-17.7 28.62-17.7h12.2c17.68 0 32 14.32 32 32v18.74c0 8.48-3.38 16.62-9.38 22.62l-11.32 11.32c-6.24 6.24-6.24 16.38 0 22.62l11.32 11.32c6 6 14.14 9.38 22.62 9.38h0.62c11.24 0 21.66 5.9 27.44 15.54l34.74 57.9c3.6 6 12.4 5.66 15.52-0.6 2.684-5.282 8.076-8.839 14.3-8.84h6.14c8.84 0 16 7.16 16 16v156.22c0 12.12-6.84 23.2-17.68 28.62l-21.66 10.82c-10.98 5.5-11.94 20.8-1.72 27.62l100.32 77.060c160.4-52.080 276.74-202.78 276.74-380.32 0-220.56-179.44-400-400-400z" />
<glyph unicode="&#xe979;" glyph-name="globe-europe-regular" horiz-adv-x="992" d="M356.2 712.6c0 12.4-10.2 22.6-22.6 22.6-6 0-11.8-2.4-16-6.6l-50.8-50.8c-4.2-4.2-6.6-10-6.6-16 0-12.4 10.2-22.6 22.6-22.6h32c6 0 11.8 2.4 16 6.6l18.8 18.8c4.2 4.2 6.6 10 6.6 16v32zM496 944c-274 0-496-222-496-496s222-496 496-496 496 222 496 496-222 496-496 496zM846.2 255.2h-26.8c-9.6 0-19 3.8-25.8 10.6l-34.6 34.6c-12 12-28.2 18.8-45.2 18.8h-36.6l-86.4 74.2c-16.4 14.2-37.4 21.8-59.2 21.8h-62.4c-16.4 0-32.6-4.4-46.8-13l-85.8-51.4c-27.4-16.4-44.2-46-44.2-78v-47.8c0-28.6 13.4-55.6 36.4-72.8l44.4-33.4c17.2-13 49.2-23.6 70.8-23.6h40.4c17.6 0 32-14.4 32-32v-14.2c-6.8-0.4-13.4-1-20.2-1-220.6 0-400 179.4-400 400 0 216.6 173.4 393.2 388.6 399.4l-58.2-43.4c-4-3-6.4-7.8-6.4-12.8v-40c0-8.8 7.2-16 16-16h32c8.8 0 16 7.2 16 16v16l32 32h41.4c12.4 0 22.6-10 22.6-22.6 0-6-2.4-11.8-6.6-16l-53.6-53.6c-2.4-2.4-5.4-4.4-8.8-5.4l-80-26.6c-6.6-2.2-11-8.2-11-15.2 0-13.2-5.2-25.6-14.4-35l-40.2-40.2c-6-6-9.4-14.2-9.4-22.6v-50.8c0-17.6 14.4-32 32-32h44.2c12.2 0 23.2 6.8 28.6 17.6l18.8 37.4c2.8 5.4 8.2 8.8 14.4 8.8h6.2c8.8 0 16-7.2 16-16s7.2-16 16-16h32c8.8 0 16 7.2 16 16v4.4c0 6.8 4.4 13 11 15.2l63.2 21c13 4.4 21.8 16.6 21.8 30.4v9c0 17.6 14.4 32 32 32h73.4c12.4 0 22.6-10.2 22.6-22.6v-18.8c0-12.4-10.2-22.6-22.6-22.6h-64c-6 0-11.8-2.4-16-6.6l-18.8-18.8c-4.2-4.2-6.6-10-6.6-16 0-12.4 10.2-22.6 22.6-22.6h32c6 0 11.8-2.4 16-6.6l18.8-18.8c4.2-4.2 6.6-10 6.6-16v-17.4l-25-25c-9.2-9.2-9.2-24-0.2-33.4l63.8-65.2c6-6.2 14.2-9.6 22.8-9.6h40.6c-7.6-22-17-43.4-28.2-63.8z" />
<glyph unicode="&#xe97a;" glyph-name="globe-regular" horiz-adv-x="992" d="M496 944c-274 0-496-222-496-496s222-496 496-496 496 222 496 496-222 496-496 496zM854.6 624h-134.4c-13.4 73-35 137.6-62.4 189.4 85.8-38 155.4-105.4 196.8-189.4zM496 848c37.2 0 97.2-82.4 126.4-224h-252.8c29.2 141.6 89.2 224 126.4 224zM96 448c0 27.4 2.8 54.2 8 80h155.4c-2-26.2-3.4-52.6-3.4-80s1.4-53.8 3.4-80h-155.4c-5.2 25.8-8 52.6-8 80zM137.4 272h134.4c13.4-73 35-137.6 62.4-189.4-85.8 38-155.4 105.4-196.8 189.4zM271.8 624h-134.4c41.4 84 111 151.4 196.8 189.4-27.4-51.8-49-116.4-62.4-189.4zM496 48c-37.2 0-97.2 82.4-126.4 224h253c-29.4-141.6-89.4-224-126.6-224zM636.2 368h-280.4c-2.2 25.6-3.8 52-3.8 80s1.6 54.4 3.8 80h280.6c2.2-25.6 3.8-52 3.8-80s-1.8-54.4-4-80zM657.8 82.6c27.4 51.8 48.8 116.4 62.4 189.4h134.4c-41.4-84-111-151.4-196.8-189.4zM732.6 368c2 26.2 3.4 52.6 3.4 80s-1.4 53.8-3.4 80h155.4c5.2-25.8 8-52.6 8-80s-2.8-54.2-8-80h-155.4z" />
<glyph unicode="&#xe97b;" glyph-name="grin-alt-regular" horiz-adv-x="992" d="M400.6 464c24.8 37.4 30.2 74.6 31.4 112-1 37.4-6.6 74.6-31.4 112-16 24-50.2 22.8-65.4 0-24.8-37.4-30.2-74.6-31.4-112 1-37.4 6.6-74.6 31.4-112 16.2-24 50.4-22.8 65.4 0zM656.6 464c24.8 37.4 30.2 74.6 31.4 112-1 37.4-6.6 74.6-31.4 112-16 24-50.2 22.8-65.4 0-24.8-37.4-30.2-74.6-31.4-112 1-37.4 6.6-74.6 31.4-112 16.2-24 50.4-22.8 65.4 0zM496 944c-274 0-496-222-496-496s222-496 496-496 496 222 496 496-222 496-496 496zM496 48c-220.6 0-400 179.4-400 400s179.4 400 400 400 400-179.4 400-400-179.4-400-400-400zM707.2 350.8c-51.8-16.6-128.8-26.2-211.2-26.2s-159.2 9.6-211.2 26.2c-19.8 6.2-38.8-10.6-35.4-30.6 15.8-94.4 142.6-160 246.6-160s230.6 65.8 246.6 160c3.2 19.6-15.4 36.8-35.4 30.6z" />
<glyph unicode="&#xe97c;" glyph-name="grin-regular" horiz-adv-x="992" d="M496 944c-274 0-496-222-496-496s222-496 496-496 496 222 496 496-222 496-496 496zM496 48c-220.6 0-400 179.4-400 400s179.4 400 400 400 400-179.4 400-400-179.4-400-400-400zM707.2 350.8c-51.8-16.6-128.8-26.2-211.2-26.2s-159.2 9.6-211.2 26.2c-19.8 6.2-38.8-10.8-35.4-30.6 15.8-94.2 142.6-160 246.6-160s230.6 65.8 246.6 160c3.2 19.6-15.4 36.8-35.4 30.6zM336 480c35.4 0 64 28.6 64 64s-28.6 64-64 64-64-28.6-64-64 28.6-64 64-64zM656 480c35.4 0 64 28.6 64 64s-28.6 64-64 64-64-28.6-64-64 28.6-64 64-64z" />
<glyph unicode="&#xe97d;" glyph-name="grip-lines-regular" horiz-adv-x="896" d="M864 384h-832c-17.6 0-32-14.4-32-32v-32c0-17.6 14.4-32 32-32h832c17.6 0 32 14.4 32 32v32c0 17.6-14.4 32-32 32zM864 608h-832c-17.6 0-32-14.4-32-32v-32c0-17.6 14.4-32 32-32h832c17.6 0 32 14.4 32 32v32c0 17.6-14.4 32-32 32z" />
<glyph unicode="&#xe97e;" glyph-name="grip-lines-vertical-regular" horiz-adv-x="512" d="M192 32v832c0 17.6-14.4 32-32 32h-32c-17.6 0-32-14.4-32-32v-832c0-17.6 14.4-32 32-32h32c17.6 0 32 14.4 32 32zM416 32v832c0 17.6-14.4 32-32 32h-32c-17.6 0-32-14.4-32-32v-832c0-17.6 14.4-32 32-32h32c17.6 0 32 14.4 32 32z" />
<glyph unicode="&#xe97f;" glyph-name="heart-circle-regular" horiz-adv-x="992" d="M723.6 634.4c-76.6 65.6-178 35.6-227.6-15.6-49.6 51.2-151 81.2-227.6 15.6-84.8-72.4-72.2-190.4-12-252.6l197.4-204c26-26.8 65-20.4 84.8 0l197.4 204c59.8 62.2 72.4 180.2-12.4 252.6zM668.2 449l-172.2-178-172.2 178.2c-26 27-32.4 79.4 5.4 111.8 28.2 24 72.2 18 98.6-9.4l68.2-70.8 68.2 70.8c26.4 27.4 70.6 33.4 98.6 9.4 37.8-32.4 31.6-85 5.4-112zM496 944c-274 0-496-222-496-496s222-496 496-496 496 222 496 496-222 496-496 496zM496 48c-220.6 0-400 179.4-400 400s179.4 400 400 400 400-179.4 400-400-179.4-400-400-400z" />
<glyph unicode="&#xe980;" glyph-name="heart-regular" d="M916.8 831.4c-115.6 97.2-294.2 82.6-404.8-30-110.6 112.6-289.2 127.4-404.8 30-150.4-126.6-128.4-333-21.2-442.4l350.8-357.4c20-20.4 46.8-31.8 75.2-31.8 28.6 0 55.2 11.2 75.2 31.6l350.8 357.4c107 109.4 129.4 315.8-21.2 442.6zM869.6 456.4l-350.8-357.4c-4.8-4.8-8.8-4.8-13.6 0l-350.8 357.4c-73 74.4-87.8 215.2 14.6 301.4 77.8 65.4 197.8 55.6 273-21l70-71.4 70 71.4c75.6 77 195.6 86.4 273 21.2 102.2-86.2 87-227.8 14.6-301.6z" />
<glyph unicode="&#xe981;" glyph-name="history-regular" d="M1008 448.936c0.504-273.28-222.364-496.744-495.644-496.936-128.028-0.090-244.746 48.326-332.788 127.884-10.194 9.212-10.6 25.086-0.886 34.8l33.92 33.92c9.058 9.058 23.552 9.318 33.11 0.79 70.704-63.080 163.984-101.394 266.288-101.394 221.098 0 400 178.936 400 400 0 221.098-178.936 400-400 400-111.040 0-211.416-45.148-283.846-118.086l98.182-96.826c15.282-15.070 4.61-41.088-16.852-41.088h-256.66c-13.254 0-24 10.746-24 24v253.114c0 21.302 25.686 32.046 40.852 17.088l90.194-88.948c89.862 90.612 214.43 146.746 352.13 146.746 273.622 0 495.494-221.562 496-495.064zM673.884 268.59l28.232 38.818c7.796 10.72 5.426 25.73-5.294 33.526l-136.822 99.51v287.556c0 13.254-10.746 24-24 24h-48c-13.254 0-24-10.746-24-24v-336.444l176.358-128.26c10.72-7.794 25.73-5.424 33.526 5.294z" />
<glyph unicode="&#xe982;" glyph-name="home-alt-regular" horiz-adv-x="1152" d="M1140.48 465.18l-492.74 404.82c-19.291 16.149-44.37 25.956-71.74 25.956s-52.45-9.807-71.916-26.099l0.176 0.143-492.74-404.82c-7.027-5.91-11.462-14.707-11.462-24.54 0-7.841 2.82-15.024 7.502-20.589l-0.040 0.049 20.48-24.6c5.91-7.022 14.703-11.452 24.532-11.452 7.836 0 15.014 2.817 20.577 7.493l-0.049-0.040 54.94 45.12v-372.62c0.102-35.305 28.695-63.898 63.99-64h256.010c35.305 0.102 63.898 28.695 64 63.99v208.010h128v-208c0.102-35.305 28.695-63.898 63.99-64h256.010c35.147 0.077 63.65 28.412 64 63.487v373.173l55.060-45.24c5.514-4.636 12.692-7.452 20.528-7.452 9.828 0 18.622 4.431 24.492 11.404l0.040 0.049 20.46 24.58c4.647 5.518 7.471 12.704 7.471 20.55 0 9.882-4.48 18.718-11.519 24.588l-0.051 0.042zM927.7 96h-191.7v208c-0.102 35.305-28.695 63.898-63.99 64h-192.010c-35.305-0.102-63.898-28.695-64-63.99v-208.010h-192v419.46l352 289.24 352-289.12z" />
<glyph unicode="&#xe983;" glyph-name="home-lg-alt-regular" horiz-adv-x="1152" d="M1140.48 529.16l-492.74 404.84c-19.284 16.175-44.37 26-71.75 26s-52.466-9.825-71.924-26.142l0.174 0.142-492.72-404.84c-7.027-5.91-11.462-14.707-11.462-24.54 0-7.841 2.82-15.024 7.502-20.589l-0.040 0.049 20.48-24.6c5.91-7.022 14.703-11.452 24.532-11.452 7.836 0 15.014 2.817 20.577 7.493l-0.049-0.040 54.94 45.1v-116.58h-0.62v-416c0.147-17.684 14.5-31.967 32.197-32h832.423c17.673 0 32 14.327 32 32v0 532.58l55-45.18c5.514-4.636 12.692-7.452 20.528-7.452 9.828 0 18.622 4.431 24.492 11.404l0.040 0.049 20.52 24.6c4.641 5.516 7.461 12.698 7.461 20.538 0 9.878-4.476 18.71-11.51 24.58l-0.051 0.041zM928 512h-0.42v-480h-223.58v288c0 35.346-28.654 64-64 64v0h-128c-35.346 0-64-28.654-64-64v0-288h-224.62v539.040l0.62 0.5v8l352 289.16 352-289.24z" />
<glyph unicode="&#xe984;" glyph-name="id-badge-regular" horiz-adv-x="768" d="M672 960h-576c-53 0-96-43-96-96v-832c0-53 43-96 96-96h576c53 0 96 43 96 96v832c0 53-43 96-96 96zM672 32h-576v832h576v-832zM288 736h192c17.6 0 32 14.4 32 32s-14.4 32-32 32h-192c-17.6 0-32-14.4-32-32s14.4-32 32-32zM384 384c70.6 0 128 57.4 128 128s-57.4 128-128 128-128-57.4-128-128 57.4-128 128-128zM204.8 128h358.4c24.8 0 44.8 17.2 44.8 38.4v38.4c0 63.6-60.2 115.2-134.4 115.2-21.6 0-37.4-16-89.6-16-53.8 0-66.8 16-89.6 16-74.2 0-134.4-51.6-134.4-115.2v-38.4c0-21.2 20-38.4 44.8-38.4z" />
<glyph unicode="&#xe985;" glyph-name="id-card-regular" horiz-adv-x="1152" d="M1056 896h-960c-53 0-96-43-96-96v-704c0-53 43-96 96-96h960c53 0 96 43 96 96v704c0 53-43 96-96 96zM1056 96h-449.6c1.8 9 1.6-7.2 1.6 44.8 0 63.6-60.2 115.2-134.4 115.2-21.6 0-37.4-16-89.6-16-53.8 0-66.8 16-89.6 16-74.2 0-134.4-51.6-134.4-115.2 0-52-0.4-35.8 1.6-44.8h-65.6v576h960v-576zM720 256h224c8.8 0 16 7.2 16 16v32c0 8.8-7.2 16-16 16h-224c-8.8 0-16-7.2-16-16v-32c0-8.8 7.2-16 16-16zM720 384h224c8.8 0 16 7.2 16 16v32c0 8.8-7.2 16-16 16h-224c-8.8 0-16-7.2-16-16v-32c0-8.8 7.2-16 16-16zM720 512h224c8.8 0 16 7.2 16 16v32c0 8.8-7.2 16-16 16h-224c-8.8 0-16-7.2-16-16v-32c0-8.8 7.2-16 16-16zM384 320c70.6 0 128 57.4 128 128s-57.4 128-128 128-128-57.4-128-128 57.4-128 128-128z" />
<glyph unicode="&#xe986;" glyph-name="image-regular" d="M928 832h-832c-53.020 0-96-42.98-96-96v-576c0-53.020 42.98-96 96-96h832c53.020 0 96 42.98 96 96v576c0 53.020-42.98 96-96 96zM916 160h-808c-6.627 0-12 5.373-12 12v0 552c0 6.627 5.373 12 12 12v0h808c6.627 0 12-5.373 12-12v0-552c0-6.627-5.373-12-12-12v0zM256 656c-44.182 0-80-35.818-80-80s35.818-80 80-80 80 35.818 80 80-35.818 80-80 80zM192 256h640v160l-175.030 175.030c-9.372 9.372-24.568 9.372-33.942 0l-239.028-239.030-79.030 79.030c-9.372 9.372-24.568 9.372-33.942 0l-79.028-79.030v-96z" />
<glyph unicode="&#xe987;" glyph-name="info-circle-regular" d="M512 944c-273.914 0-496-222.166-496-496 0-273.994 222.086-496 496-496s496 222.006 496 496c0 273.834-222.086 496-496 496zM512 48c-221.064 0-400 178.862-400 400 0 220.99 178.944 400 400 400 220.982 0 400-178.942 400-400 0-221.060-178.862-400-400-400zM512 724c46.392 0 84-37.608 84-84s-37.608-84-84-84-84 37.608-84 84 37.608 84 84 84zM624 216c0-13.254-10.746-24-24-24h-176c-13.254 0-24 10.746-24 24v48c0 13.254 10.746 24 24 24h24v128h-24c-13.254 0-24 10.746-24 24v48c0 13.254 10.746 24 24 24h128c13.254 0 24-10.746 24-24v-200h24c13.254 0 24-10.746 24-24v-48z" />
<glyph unicode="&#xe988;" glyph-name="info-regular" horiz-adv-x="512" d="M448 254.822v257.178c0 32.95-12.516 63.034-33.042 85.744 36.852 39.976 57.042 91.564 57.042 146.256 0 119.374-96.606 216-216 216-119.374 0-216-96.606-216-216 0-41.764 11.772-81.718 33.748-116.074-43.534-20.454-73.748-64.728-73.748-115.926v-78.628c0-47.282 25.768-88.658 64-110.822v-67.728c-38.232-22.164-64-63.54-64-110.822v-80c0-70.58 57.42-128 128-128h256c70.58 0 128 57.42 128 128v80c0 47.282-25.768 88.658-64 110.822zM256 864c66.274 0 120-53.726 120-120s-53.726-120-120-120-120 53.726-120 120 53.726 120 120 120zM416 64c0-17.672-14.328-32-32-32h-256c-17.672 0-32 14.328-32 32v80c0 17.672 14.328 32 32 32h32v225.372h-32c-17.672 0-32 14.328-32 32v78.628c0 17.672 14.328 32 32 32h192c17.672 0 32-14.328 32-32v-336h32c17.672 0 32-14.328 32-32v-80z" />
<glyph unicode="&#xe989;" glyph-name="info-square-regular" horiz-adv-x="896" d="M896 800v-704c0-53.020-42.98-96-96-96h-704c-53.020 0-96 42.98-96 96v704c0 53.020 42.98 96 96 96h704c53.020 0 96-42.98 96-96zM800 108v680c0 6.627-5.373 12-12 12v0h-680c-6.627 0-12-5.373-12-12v0-680c0-6.627 5.373-12 12-12v0h680c6.627 0 12 5.373 12 12v0zM448 724c46.392 0 84-37.608 84-84s-37.608-84-84-84-84 37.608-84 84 37.608 84 84 84zM560 216c0-13.254-10.746-24-24-24h-176c-13.254 0-24 10.746-24 24v48c0 13.254 10.746 24 24 24h24v128h-24c-13.254 0-24 10.746-24 24v48c0 13.254 10.746 24 24 24h128c13.254 0 24-10.746 24-24v-200h24c13.254 0 24-10.746 24-24v-48z" />
<glyph unicode="&#xe98a;" glyph-name="landmark-regular" horiz-adv-x="1152" d="M96 640h960c17.68 0 32 14.32 32 32v73.82c0 13.34-8.28 25.28-20.76 29.96l-468.76 180.14c-7.24 2.72-14.86 4.080-22.48 4.080s-15.24-1.36-22.48-4.080l-468.76-180.14c-12.232-4.683-20.759-16.326-20.76-29.96v0-73.82c0-17.68 14.32-32 32-32zM576 861.72l327.16-125.72h-654.32l327.16 125.72zM1120 32h-32v128c0 35.34-32.74 64-73.14 64h-54.86v352h-96v-352h-128v352h-96v-352h-128v352h-96v-352h-128v352h-96v-352h-54.86c-40.4 0-73.14-28.66-73.14-64v-128h-32c-17.68 0-32-14.32-32-32v-32c0-17.68 14.32-32 32-32h1088c17.68 0 32 14.32 32 32v32c0 17.68-14.32 32-32 32zM992 32h-832v96h832v-96z" />
<glyph unicode="&#xe98b;" glyph-name="laptop-regular" horiz-adv-x="1280" d="M1248 256h-96v576c0 70.4-57.6 128-128 128h-768c-70.4 0-128-57.6-128-128v-576h-96c-17.6 0-32-14.4-32-32v-96c0-105.6 86.4-192 192-192h896c105.6 0 192 86.4 192 192v96c0 17.6-14.4 32-32 32zM224 832c0 17.34 14.66 32 32 32h768c17.34 0 32-14.66 32-32v-576h-832v576zM1184 128c0-52.94-43.060-96-96-96h-896c-52.94 0-96 43.060-96 96v32h361.8c11.14-18.78 30.76-32 54.2-32h256c23.44 0 43.040 13.22 54.2 32h361.8v-32z" />
<glyph unicode="&#xe98c;" glyph-name="list-regular" d="M160 864h-128c-17.673 0-32-14.327-32-32v0-128c0-17.673 14.327-32 32-32v0h128c17.673 0 32 14.327 32 32v0 128c0 17.673-14.327 32-32 32v0zM160 544h-128c-17.673 0-32-14.327-32-32v0-128c0-17.673 14.327-32 32-32v0h128c17.673 0 32 14.327 32 32v0 128c0 17.673-14.327 32-32 32v0zM160 224h-128c-17.673 0-32-14.327-32-32v0-128c0-17.673 14.327-32 32-32v0h128c17.673 0 32 14.327 32 32v0 128c0 17.673-14.327 32-32 32v0zM992 496h-640c-17.673 0-32-14.327-32-32v0-32c0-17.673 14.327-32 32-32v0h640c17.673 0 32 14.327 32 32v0 32c0 17.673-14.327 32-32 32v0zM992 176h-640c-17.673 0-32-14.327-32-32v0-32c0-17.673 14.327-32 32-32v0h640c17.673 0 32 14.327 32 32v0 32c0 17.673-14.327 32-32 32v0zM992 816h-640c-17.673 0-32-14.327-32-32v0-32c0-17.673 14.327-32 32-32v0h640c17.673 0 32 14.327 32 32v0 32c0 17.673-14.327 32-32 32v0z" />
<glyph unicode="&#xe98d;" glyph-name="list-ul-regular" d="M96 224c-53.019 0-96-42.981-96-96s42.981-96 96-96c53.019 0 96 42.981 96 96v0c0 53.019-42.981 96-96 96v0zM96 544c-53.019 0-96-42.981-96-96s42.981-96 96-96c53.019 0 96 42.981 96 96v0c0 53.019-42.981 96-96 96v0zM96 864c-53.019 0-96-42.981-96-96s42.981-96 96-96c53.019 0 96 42.981 96 96v0c0 53.019-42.981 96-96 96v0zM992 816h-640c-17.673 0-32-14.327-32-32v0-32c0-17.673 14.327-32 32-32v0h640c17.673 0 32 14.327 32 32v0 32c0 17.673-14.327 32-32 32v0zM992 496h-640c-17.673 0-32-14.327-32-32v0-32c0-17.673 14.327-32 32-32v0h640c17.673 0 32 14.327 32 32v0 32c0 17.673-14.327 32-32 32v0zM992 176h-640c-17.673 0-32-14.327-32-32v0-32c0-17.673 14.327-32 32-32v0h640c17.673 0 32 14.327 32 32v0 32c0 17.673-14.327 32-32 32v0z" />
<glyph unicode="&#xe98e;" glyph-name="location-arrow-regular" d="M923.8 960c-11.46 0-23.18-2.2-34.78-7.040l-831.54-383.78c-95.94-44.78-63.96-185.5 38.38-185.5h351.82v-351.82c0-60.020 48.42-95.86 97.48-95.86 34.6 0 69.5 17.8 88.020 57.48l383.8 831.56c27.14 65.18-28.7 134.96-93.18 134.96zM543.62 31.86v447.76h-95.94l-350.96-1.42c-0.54 0.74-0.94 2.7 0.96 3.86l826.42 381.42c1.22-0.82 2.56-2.14 3.38-3.36l-383.86-828.26z" />
<glyph unicode="&#xe98f;" glyph-name="lock-regular" horiz-adv-x="896" d="M800 576h-64v93.2c0 159.2-128 290.4-287.2 290.8s-288.8-129-288.8-288v-96h-64c-53 0-96-43-96-96v-448c0-53 43-96 96-96h704c53 0 96 43 96 96v448c0 53-43 96-96 96zM256 672c0 105.8 86.2 192 192 192s192-86.2 192-192v-96h-384v96zM800 32h-704v448h704v-448z" />
<glyph unicode="&#xe990;" glyph-name="long-arrow-alt-down-regular" horiz-adv-x="512" d="M40.97 215.030l198.058-198.060c9.372-9.372 24.568-9.372 33.942 0l198.058 198.060c15.12 15.12 4.412 40.97-16.97 40.97h-142.058v616c0 13.254-10.746 24-24 24h-64c-13.254 0-24-10.746-24-24v-616h-142.060c-21.38 0-32.088-25.852-16.97-40.97z" />
<glyph unicode="&#xe991;" glyph-name="long-arrow-alt-left-regular" horiz-adv-x="896" d="M215.030 658.058l-198.060-198.058c-9.372-9.372-9.372-24.568 0-33.942l198.060-198.058c15.12-15.12 40.97-4.412 40.97 16.97v142.060h616c13.254 0 24 10.746 24 24v64c0 13.254-10.746 24-24 24h-616v142.060c0 21.38-25.852 32.088-40.97 16.968z" />
<glyph unicode="&#xe992;" glyph-name="long-arrow-alt-right-regular" horiz-adv-x="896" d="M680.97 228l198.060 198.058c9.372 9.372 9.372 24.568 0 33.942l-198.060 198.058c-15.12 15.12-40.97 4.412-40.97-16.97v-142.060h-616c-13.254 0-24-10.746-24-24v-64c0-13.254 10.746-24 24-24h616v-142.060c0-21.378 25.852-32.086 40.97-16.968z" />
<glyph unicode="&#xe993;" glyph-name="long-arrow-alt-up-regular" horiz-adv-x="512" d="M471.030 680.97l-198.058 198.060c-9.372 9.372-24.568 9.372-33.942 0l-198.058-198.060c-15.12-15.118-4.412-40.97 16.968-40.97h142.060v-616c0-13.254 10.746-24 24-24h64c13.254 0 24 10.746 24 24v616h142.060c21.38 0 32.088 25.852 16.97 40.97z" />
<glyph unicode="&#xe994;" glyph-name="long-arrow-down-regular" horiz-adv-x="640" d="M600.6 305l-39.2 39.2c-9.6 9.6-25 9.4-34.2-0.4l-155.2-161.4v689.6c0 13.2-10.8 24-24 24h-56c-13.2 0-24-10.8-24-24v-689.6l-155 161.4c-9.4 9.6-24.8 9.8-34.2 0.4l-39.2-39.2c-9.4-9.4-9.4-24.6 0-34l263.6-263.6c9.4-9.4 24.6-9.4 34 0l263.6 263.6c9.2 9.4 9.2 24.6-0.2 34z" />
<glyph unicode="&#xe995;" glyph-name="long-arrow-left-regular" horiz-adv-x="896" d="M304.97 167.432l39.252 39.252c9.506 9.506 9.35 24.968-0.346 34.28l-161.436 155.036h689.56c13.254 0 24 10.746 24 24v56c0 13.254-10.746 24-24 24h-689.56l161.434 155.036c9.698 9.312 9.854 24.774 0.346 34.28l-39.252 39.252c-9.372 9.372-24.568 9.372-33.942 0l-263.594-263.598c-9.372-9.372-9.372-24.568 0-33.942l263.598-263.598c9.372-9.37 24.568-9.37 33.94 0.002z" />
<glyph unicode="&#xe996;" glyph-name="long-arrow-right-regular" horiz-adv-x="896" d="M591.030 728.568l-39.252-39.252c-9.506-9.506-9.35-24.968 0.346-34.28l161.436-155.036h-689.56c-13.254 0-24-10.746-24-24v-56c0-13.254 10.746-24 24-24h689.56l-161.434-155.036c-9.698-9.312-9.854-24.774-0.346-34.28l39.252-39.252c9.372-9.372 24.568-9.372 33.942 0l263.598 263.598c9.372 9.372 9.372 24.568 0 33.942l-263.602 263.596c-9.372 9.372-24.568 9.372-33.94 0z" />
<glyph unicode="&#xe997;" glyph-name="long-arrow-up-regular" horiz-adv-x="640" d="M39.432 591.030l39.252-39.252c9.506-9.506 24.968-9.35 34.28 0.346l155.036 161.436v-689.56c0-13.254 10.746-24 24-24h56c13.254 0 24 10.746 24 24v689.56l155.036-161.434c9.312-9.698 24.774-9.854 34.28-0.346l39.252 39.252c9.372 9.372 9.372 24.568 0 33.942l-263.598 263.594c-9.372 9.372-24.568 9.372-33.942 0l-263.596-263.598c-9.372-9.372-9.372-24.568 0-33.94z" />
<glyph unicode="&#xe998;" glyph-name="map-marked-alt-regular" horiz-adv-x="1152" d="M688 708c0 26.6-21.4 48-48 48s-48-21.4-48-48c0-26.4 21.4-48 48-48s48 21.6 48 48zM640 256c10 0 20 4 27 12.2 70.6 80 254.6 300.2 254.6 421.2 0 149.4-126 270.6-281.6 270.6s-281.6-121.2-281.6-270.6c0-120.8 184-341.2 254.6-421.2 7-8.2 17-12.2 27-12.2zM640 864c102.4 0 185.6-78.4 185.6-174.6 0-42.8-63.6-158.2-185.6-305.2-122 147-185.6 262.4-185.6 305.2 0 96.2 83.2 174.6 185.6 174.6zM1120 640c-4 0-8-0.8-12-2.4l-147-54.4c-16.4-40.8-40.4-84-68.4-127.6l163.4 60.4v-386l-256-89v286.4c-27.4-34.6-55.8-68.6-85-101.6-3.4-3.8-7.2-7-11-10.2v-162.8l-256 90.4v226c-36.2 48.2-69.6 97.6-96 145.6v-360.4l-1.2-0.4-254.8-94v386l247.2 86c-16 30.8-28.2 60.6-36.6 89l-266.4-93c-24.2-9.6-40.2-33.2-40.2-59.4v-500.6c0-18.4 15-32 32-32 4 0 8 0.8 12 2.4l340 125.6 344-121.4c26-8.6 54-8.8 80-0.4l303.8 105.8c24.4 9.8 40.2 33.2 40.2 59.4v500.6c0 18.4-15 32-32 32z" />
<glyph unicode="&#xe999;" glyph-name="map-marker-alt-regular" horiz-adv-x="768" d="M384 960c-212.194 0-384-172.028-384-384 0-142.234 47.982-186.682 302.542-594.848 37.57-60.238 125.388-60.166 162.914 0 254.694 408.38 302.544 452.642 302.544 594.848 0 212.194-172.028 384-384 384zM384 32c-254.848 408.628-288 434.424-288 544 0 159.058 128.942 288 288 288s288-128.942 288-288c0-109.106-30.332-130.85-288-544zM224 576c0 88.366 71.634 160 160 160s160-71.634 160-160-71.634-160-160-160-160 71.634-160 160z" />
<glyph unicode="&#xe99a;" glyph-name="map-regular" horiz-adv-x="1152" d="M1120.040 896c-3.92 0-7.96-0.74-11.92-2.32l-340.12-125.68-344 121.44c-12.080 4.153-25.998 6.554-40.477 6.56h-0.003c-13.38 0-26.74-2.1-39.62-6.28l-303.66-105.62c-23.779-9.697-40.234-32.636-40.24-59.419v-692.641c0-18.38 15.060-32.040 31.98-32.040 3.92 0 7.94 0.74 11.92 2.32l340.1 125.68 344-121.42c12.086-4.171 26.015-6.58 40.505-6.58 14.154 0 27.771 2.298 40.498 6.541l-0.903-0.261 303.66 105.62c23.782 9.693 40.24 32.634 40.24 59.42v0 692.64c0 18.38-15.060 32.040-31.96 32.040zM448 779.16l256-90.38v-571.94l-256 90.38v571.94zM96 123.9v577.96l256 89.060v-572.4l-1.28-0.46-254.72-94.16zM1056 194.16l-256-89.060v572.38l1.28 0.48 254.72 94.14v-577.94z" />
<glyph unicode="&#xe99b;" glyph-name="medal-regular" d="M684.34 396.66l-104.86 15.28-46.86 95.040c-4.22 8.5-12.44 12.78-20.66 12.78-8.16 0-16.32-4.24-20.56-12.78l-46.86-95.040-104.86-15.28c-18.8-2.72-26.34-25.92-12.7-39.18l75.86-73.92-17.94-104.44c-2.56-14.92 9.34-26.88 22.64-26.88 3.54 0 7.16 0.84 10.66 2.7l93.8 49.3 93.8-49.3c3.48-1.84 7.1-2.66 10.62-2.66 13.32 0 25.24 11.92 22.68 26.86l-17.94 104.44 75.86 73.92c13.66 13.26 6.12 36.44-12.68 39.16zM991.94 960h-315.7c-22.48 0-43.32-11.8-54.88-31.080l-109.36-182.26-109.36 182.26c-11.385 18.747-31.692 31.080-54.88 31.080h-315.7c-25.9 0-41.060-29.14-26.22-50.36l227.98-325.7c-65.4-68.88-105.82-161.68-105.82-263.94 0-211.74 172.26-384 384-384s384 172.26 384 384c0 102.26-40.42 195.060-105.82 263.96l227.98 325.68c14.84 21.22-0.32 50.36-26.22 50.36zM154.98 864h174.66l101.28-168.8c-44.22-9.56-85.46-26.9-122.6-50.26l-153.34 219.060zM800 320c0-159.060-128.94-288-288-288s-288 128.94-288 288 128.94 288 288 288 288-128.94 288-288zM715.68 644.94c-37.14 23.36-78.38 40.72-122.6 50.26l101.28 168.8h174.66l-153.34-219.060z" />
<glyph unicode="&#xe99c;" glyph-name="meh-regular" horiz-adv-x="992" d="M496 944c-274 0-496-222-496-496s222-496 496-496 496 222 496 496-222 496-496 496zM496 48c-220.6 0-400 179.4-400 400s179.4 400 400 400 400-179.4 400-400-179.4-400-400-400zM336 480c35.4 0 64 28.6 64 64s-28.6 64-64 64-64-28.6-64-64 28.6-64 64-64zM656 608c-35.4 0-64-28.6-64-64s28.6-64 64-64 64 28.6 64 64-28.6 64-64 64zM672 320h-352c-26.4 0-48-21.6-48-48s21.6-48 48-48h352c26.4 0 48 21.6 48 48s-21.6 48-48 48z" />
<glyph unicode="&#xe99d;" glyph-name="microphone-regular" horiz-adv-x="704" d="M672 576h-32c-17.68 0-32-14.32-32-32v-96c0-149.6-128.98-269.64-281.58-254.76-133 12.98-230.42 132.54-230.42 266.16v84.6c0 17.68-14.32 32-32 32h-32c-17.68 0-32-14.32-32-32v-80.32c0-179.28 127.94-339.1 304-363.38v-68.3h-112c-17.68 0-32-14.32-32-32v-32c0-17.68 14.32-32 32-32h320c17.68 0 32 14.32 32 32v32c0 17.68-14.32 32-32 32h-112v67.54c171.42 23.52 304 170.66 304 348.46v96c0 17.68-14.32 32-32 32zM352 256c106.040 0 192 85.96 192 192v320c0 106.040-85.96 192-192 192s-192-85.96-192-192v-320c0-106.040 85.96-192 192-192zM256 768c0 52.94 43.060 96 96 96s96-43.060 96-96v-320c0-52.94-43.060-96-96-96s-96 43.060-96 96v320z" />
<glyph unicode="&#xe99e;" glyph-name="microphone-slash-regular" horiz-adv-x="1280" d="M1267.98 17.96l-1195.98 935.020c-13.8 11.040-33.94 8.82-44.98-4.98l-20-24.98c-11.060-13.8-8.82-33.94 4.98-44.98l1196-935.020c13.8-11.040 33.92-8.8 44.98 4.98l20 24.98c11.040 13.8 8.82 33.94-5 44.98zM992 448v96c0 17.68-14.32 32-32 32h-32c-17.68 0-32-14.32-32-32v-96c0-5.5-1.38-10.62-1.72-16.020l86.42-67.56c6.64 26.94 11.3 54.62 11.3 83.58zM800 32h-112v67.54c41.36 5.68 80.28 18.86 115.8 37.62l-86.2 67.38c-32.18-10.28-66.92-14.84-103.18-11.3-132.98 12.98-230.42 132.54-230.42 266.16v5.96l-96 75.060v-76.74c0-179.28 127.94-339.1 304-363.38v-68.3h-112c-17.68 0-32-14.32-32-32v-32c0-17.68 14.32-32 32-32h320c17.68 0 32 14.32 32 32v32c0 17.68-14.32 32-32 32zM544 768c0 52.94 43.060 96 96 96s96-43.060 96-96v-212.28l96-75.060v287.34c0 106.040-85.96 192-192 192-101.94 0-184.52-79.7-190.8-180.060l94.8-74.1v62.16z" />
<glyph unicode="&#xe99f;" glyph-name="minus-circle-regular" d="M280 392c-13.2 0-24 10.8-24 24v64c0 13.2 10.8 24 24 24h464c13.2 0 24-10.8 24-24v-64c0-13.2-10.8-24-24-24h-464zM1008 448c0-274-222-496-496-496s-496 222-496 496 222 496 496 496 496-222 496-496zM912 448c0 221-179 400-400 400s-400-179-400-400 179-400 400-400 400 179 400 400z" />
<glyph unicode="&#xe9a0;" glyph-name="minus-regular" horiz-adv-x="768" d="M736 512h-704c-17.68 0-32-14.32-32-32v-64c0-17.68 14.32-32 32-32h704c17.68 0 32 14.32 32 32v64c0 17.68-14.32 32-32 32z" />
<glyph unicode="&#xe9a1;" glyph-name="minus-square-regular" horiz-adv-x="896" d="M216 392c-13.2 0-24 10.8-24 24v64c0 13.2 10.8 24 24 24h464c13.2 0 24-10.8 24-24v-64c0-13.2-10.8-24-24-24h-464zM896 800v-704c0-53-43-96-96-96h-704c-53 0-96 43-96 96v704c0 53 43 96 96 96h704c53 0 96-43 96-96zM800 108v680c0 6.6-5.4 12-12 12h-680c-6.6 0-12-5.4-12-12v-680c0-6.6 5.4-12 12-12h680c6.6 0 12 5.4 12 12z" />
</font>
</defs>
</svg>
